Today is a free download without charge Download

Побег | Полный 1-й сезон | Серии: 1-22 из 22 (Андрей Малюков) [2010, Боевик, криминальный фильм, DVB]

Reply to topic
 
Author
Message

nsa1977 ®

Gender:

Longevity: 11 years

Posts: 1470

Location: Пенза

Торрент-статистика

Post 18-Sep-2011 22:40

[Quote]

Побег
Серии: 1-22 из 22
-
Год выпуска: 2010
Производство: ООО «СТУДИЯ РУССКИЙ ПРОЕКТ»
Жанр: Боевик, криминальный фильм
Продолжительность: ~ 00:51:00 серия
Режиссёр: Андрей Малюков--В ролях: Юрий Чурсин (Алексей Чернов), Владимир Епифанцев (Кирилл Панин), Дана Агишева (Надя), Екатерина Климова (Светлана), Юрий Тарасов (Галдаев), Андрей Фролов (Кольцов), Марина Блейк (Кочеткова), Нодар Сирадзе (Налим), Виталий Кищенко (Логопед), Тимофей Трибунцев (Беленко), Сергей Романович (Макс), Евгений Мундум (Коба), Юрис Лауциньш (Соломон), Андрей Феськов (Комар), Леван Мсхиладзе (Баграм), Наташа Фенкина, Анна Банщикова, Владимир Капустин (II), Максим Костромыкин, Глеб Иванов, Всеволод Спасибо, Антон Степанов, Виктор Павлов...--Описание: Российский римейк телесериала «Побег» («Prison Break»).
Молодой талантливый инженер успешной строительной компании Алексей Чернов решает спасти своего брата Кирилла Панина, обвиняемого в убийстве министра финансов. Все улики против Кирилла, но Алексей верит в невиновность брата. В виду исключительности преступления для Кирилла требуют высшей меры наказания – смертной казни. Понимая, что законным путем, он ничего не добьется, Алексей разрабатывает план побега брата из тюрьмы. Чернов идет на ограбление банка, чтобы быть пойманным и осужденным. Он попадает в ту же тюрьму, где в ожидании вынесения приговора сидит Кирилл. Алексей уверен в успешной реализации своего замысла, так как прекрасно знает место, куда попал: его компания некогда меняла в тюрьме все коммуникации...--Качество: DVB (SATRemux по-старому)
Формат: MPEG
Видео кодек: MPEG2
Аудио кодек: MPEG1 Layer 2
Видео: MPEG2 Video 720x576 (4:3) 25.00fps 4 207 Кбит/сек, 0.406 bit/pixel
Аудио: MPEG Audio 48000Hz stereo 192 Кбит/сек

MI


General
Complete name : E:\_NEW\Pobeg.2010.(SATRemux)\Pobeg.03_(SATRemux.AleMak).mpg
Format : MPEG-PS
File size : 1.61 GiB
Duration : 51mn 23s
Overall bit rate : 4 488 Kbps
Writing library : (c) 1998-2008 Womble Multimedia, Inc. / MPEG Video Wizard (12/2008) / Mar 31 2009
Video
ID : 224 (0xE0)
Format : MPEG Video
Format version : Version 2
Format profile : [email protected]
Format settings, BVOP : Yes
Format settings, Matrix : Default
Duration : 51mn 23s
Bit rate mode : Variable
Bit rate : 4 207 Kbps
Nominal bit rate : 15.0 Mbps
Width : 720 pixels
Height : 576 pixels
Display aspect ratio : 4:3
Frame rate : 25.000 fps
Standard : PAL
Color space : YUV
Chroma subsampling : 4:2:0
Bit depth : 8 bits
Scan type : Interlaced
Scan order : Top Field First
Bits/(Pixel*Frame) : 0.406
Stream size : 1.51 GiB (94%)
Writing library : (c) 1998-2008 Womble Multimedia, Inc. / MPEG Video Wizard (12/2008) / Mar 31 2009
Audio
ID : 192 (0xC0)
Format : MPEG Audio
Format version : Version 1
Format profile : Layer 2
Duration : 51mn 23s
Bit rate mode : Constant
Bit rate : 192 Kbps
Channel(s) : 2 channels
Sampling rate : 48.0 KHz
Video delay : -80ms
Stream size : 70.6 MiB (4%)
       

_________________


Last edited by nsa1977 on 2011-09-18 22:42; edited 1 time in total
Other forum [Profile] [PM]
Display posts from previous:    
Reply to topic

The time now is: Today 14:11

All times are GMT + 3 Hours



You cannot post new topics in this forum
You cannot reply to topics in this forum
You cannot edit your posts in this forum
You cannot delete your posts in this forum
You cannot vote in polls in this forum
You cannot attach files in this forum
You cannot download files in this forum