Today is a free download without charge Download

Motörhead: The World Is Ours - Vol.1 Everything Further Than Everyplace Else [2011, Rock, BDRip 1080p]

Reply to topic
 
Author
Message

Omen ®

Longevity: 8 years 4 months

Posts: 181087

Торрент-статистика

Post 30-Aug-2013 17:09

[Quote]

The World Is Ours - Vol.1
Everything Further Than Everyplace Else
-- Жанр: Rock
Продолжительность: 01:28:12
Год выпуска: 2011-Описание: Выступление группы в Сантьяго, Чили. 9 апреля 2011 года.-Треклист:
Live in Teatro Caupolican,Santiago, Chile. Apr 9th, 2011
01. Iron Fist
02. Stay Clean
03. Get Back In Line
04. Metropolis
05. Over the Top
06. One Night Stand
07. Rock Out
08. The Thousand Names Of God
09. I Got Mine
10. I Know How To Die
11. The Chase Is Better Than The Catch
12. In The Name Of Tragedy
13. Just Cos You Got The Power
14. Going To Brazil
15. Killed By Death
16. Ace Of Spades
17. Overkill-Качество: BDRip 1080p
Контейнер: MKV
Видео кодек: H.264
Аудио кодек: DTS
Видео: H.264, 1920*1080 (16:9), 9855 kbps, 23.97 fps
Аудио: DTS, 1509 kbps, 48.0 khz, 6 ch-Источник: Blu-ray
-

Отчёт MediaInfo

ОбщееУникальный идентификатор : 172222054842911886005359828896331420392 (0x8190C2E15184FAF396386594CB7552E8)Полное имя : D:\Video\Motörhead - The Wörld Is Ours - Vol.1.mkvФормат : MatroskaВерсия формата : Version 2Размер файла : 7,00 ГбайтПродолжительность : 1 ч. 28 м.Общий поток : 11,4 Мбит/секДата кодирования : UTC 2013-08-27 18:15:09Программа кодирования : mkvmerge v5.6.0 ('Kenya Kane') built on May 27 2012 16:44:04Библиотека кодирования : libebml v1.2.3 + libmatroska v1.3.0
ВидеоИдентификатор : 1Формат : AVCФормат/Информация : Advanced Video CodecПрофиль формата : [email protected]Параметр CABAC формата : ДаПараметр ReFrames формата : 4 кадраИдентификатор кодека : V_MPEG4/ISO/AVCПродолжительность : 1 ч. 28 м.Битрейт : 9855 Кбит/секШирина : 1920 пикселейВысота : 1080 пикселейСоотношение сторон : 16:9Режим частоты кадров : ПостоянныйЧастота кадров : 23,976 кадра/секЦветовое пространство : YUVСубдискретизация насыщенности : 4:2:0Битовая глубина : 8 битТип развёртки : ПрогрессивнаяБит/(Пиксели*Кадры) : 0.198Размер потока : 5,93 Гбайт (85%)Библиотека кодирования : x264 core 133 r2334 a3ac64bНастройки программы : cabac=1 / ref=3 / deblock=1:-1:-1 / analyse=0x3:0x133 / me=hex / subme=7 / psy=1 / psy_rd=1.00:0.15 / mixed_ref=1 / me_range=16 / chroma_me=1 / trellis=1 / 8x8dct=1 / cqm=0 / deadzone=21,11 / fast_pskip=1 / chroma_qp_offset=-3 / threads=3 / lookahead_threads=1 / sliced_threads=0 / nr=0 / decimate=1 / interlaced=0 / bluray_compat=0 / constrained_intra=0 / bframes=3 / b_pyramid=2 / b_adapt=2 / b_bias=0 / direct=1 / weightb=1 / open_gop=0 / weightp=2 / keyint=240 / keyint_min=23 / scenecut=40 / intra_refresh=0 / rc_lookahead=40 / rc=2pass / mbtree=1 / bitrate=9855 / ratetol=1.0 / qcomp=0.60 / qpmin=0 / qpmax=69 / qpstep=4 / cplxblur=20.0 / qblur=0.5 / vbv_maxrate=50000 / vbv_bufsize=50000 / nal_hrd=none / ip_ratio=1.40 / aq=1:1.00Язык : EnglishDefault : ДаForced : Нет
АудиоИдентификатор : 2Формат : DTSФормат/Информация : Digital Theater SystemsРежим : 16Параметр Endianness формата : BigИдентификатор кодека : A_DTSПродолжительность : 1 ч. 28 м.Вид битрейта : ПостоянныйБитрейт : 1509 Кбит/секКаналы : 6 каналовРасположение каналов : Front: L C R, Side: L R, LFEЧастота : 48,0 КГцБитовая глубина : 16 битМетод сжатия : С потерямиРазмер потока : 952 Мбайт (13%)Default : ДаForced : Нет
Меню00:00:00.000 : en:Chapter 0100:05:26.951 : en:Chapter 0200:08:31.135 : en:Chapter 0300:12:36.797 : en:Chapter 0400:17:40.976 : en:Chapter 0500:20:29.061 : en:Chapter 0600:23:59.396 : en:Chapter 0700:28:27.080 : en:Chapter 0800:33:07.777 : en:Chapter 0900:38:23.009 : en:Chapter 1000:41:44.168 : en:Chapter 1100:46:58.690 : en:Chapter 1200:55:55.643 : en:Chapter 1301:01:59.048 : en:Chapter 1401:04:55.933 : en:Chapter 1501:09:49.727 : en:Chapter 1601:18:00.092 : en:Chapter 1701:25:41.344 : en:Chapter 1801:28:12.954 : en:Chapter 19

Скриншоты

Other forum [Profile] [PM]

gueroloco

Longevity: 7 years 6 months

Posts: 10

Торрент-статистика

Post 04-Sep-2013 06:29 (after 4 days)

[Quote]

I have it on dvd but this should be seen very well, so I download,
thanks for uploading
Other forum [Profile] [PM]

Omen ®

Longevity: 8 years 4 months

Posts: 181087

Торрент-статистика

Post 04-Sep-2013 07:24 (after 54 minutes)

[Quote]

gueroloco,
Пожалуйста!
Но на будущее, пишите на русском языке!
Other forum [Profile] [PM]
Display posts from previous:    
Reply to topic

The time now is: Today 18:44

All times are GMT + 3 Hours



You cannot post new topics in this forum
You cannot reply to topics in this forum
You cannot edit your posts in this forum
You cannot delete your posts in this forum
You cannot vote in polls in this forum
You cannot attach files in this forum
You cannot download files in this forum