Today is a free download without charge Download

Знамение / Knowing (Алекс Пройас) [2009 г., фантастика, триллер, драма, детектив, BDRip720p]

Reply to topic
 
Author
Message

Delia ®

Gender:

Longevity: 9 years 6 months

Posts: 1821

Торрент-статистика

Post 18-Sep-2011 11:10

[Quote]

ЗнамениеKnowing Год выпуска: 2009
Страна: США, Великобритания, Австралия
Жанр: фантастика, триллер, драма, детектив
Продолжительность: 02:01:29
Перевод: Профессиональный (полное дублирование)
Режиссер: Алекс Пройас
Продюссер: Алекс Пройас, Стив Тисч, Тодд Блэк
Сценарий: Джульетт Сноуден, Стайлз Уайт, Райн Дуглас Пирсон
Бюджет: $50 000 000
Премьера в мире: 9 марта 2009
В ролях: Николас Кейдж, Чандлер Кентербери, Роуз Бирн, Лара Робинсон, Д.Г. Малоуни, Надя Таунсенд, Алан Хопгуд, Эдриэнн Пикеринг, Джошуа Лонг, Даниэль Картер
Описание: После вскрытия «временной капсулы», в которую в 1959 группа школьников поместила рисунки со своим видением будущего, в руки к профессору Джону Кестлеру попадает загадочный лист, сверху до низу исписанный цифрами. В поисках расшифровки содержания листа, Кестлер устанавливает загадочную связь между цифрами и крупнейшими мировыми бедствиями, произошедшими на Земле за последние 50 лет. Если верить цифрам, трагедий не избежать и в будущем, только теперь Кестлер знает, когда их ожидать. Но есть ли возможность их предотвратить? И самое главное: что будет, когда цепочка цифр кончится?
Качество: BDRip720p
Формат: MKV
Видео кодек: H.264
Аудио кодек: AC3
Видео: English, 4255 Кбит/сек, 1280*544 (2,35:1), в 23,976 кадр/сек, AVC ([email protected])
Аудио: Russian, 448 Кбит/сек, 48,0 КГц, 16 бит, 6 канала(ов), AC-3 (дубляж )
Аудио:English, 320 Кбит/сек, 48,0 КГц, 16 бит, 6 канала(ов), AC-3 ( оригинал )
Субтитры:Russian, English ( VobSub )
Дополнительно отдельными файлами :
Аудио:Russian, 389 Мбайт, 2 ч. 1 м.448 Кбит/сек, 48,0 КГц, 16 бит, 6 канала(ов), AC-3(MVO - Киномания)
Аудио:Russian, 389 Мбайт, 2 ч. 1 м.448 Кбит/сек, 48,0 КГц, 16 бит, 6 канала(ов), AC-3(VO - А.Гаврилов)
Аудио:Russian, 389 Мбайт, 2 ч. 1 м.448 Кбит/сек, 48,0 КГц, 16 бит, 6 канала(ов), AC-3(VO - Ю.Сербин)

MI:

Код:
Общее
Уникальный идентификатор         : 235698238326613410564821434488942814138 (0xB151D45A534595E6B37F94519140E3BA)
Полное имя                       : E:\торрент\Knowing(2009)BDRip720p\Knowing(2009)BDRip720p.mkv
Формат                           : Matroska
Размер файла                     : 4,27 Гбайт
Продолжительность                : 2 ч. 1 м.
Общий поток                      : 5025 Кбит/сек
Дата кодирования                 : UTC 2011-09-18 06:39:50
Программа кодирования            : mkvmerge v4.9.1 ('Ich will') built on Jul 11 2011 23:53:15
Библиотека кодирования           : libebml v1.2.1 + libmatroska v1.1.1
Видео
Идентификатор                    : 1
Формат                           : AVC
Формат/Информация                : Advanced Video Codec
Профиль формата                  : [email protected]
Параметр CABAC формата           : Да
Параметр ReFrames формата        : 10 кадры
Идентификатор кодека             : V_MPEG4/ISO/AVC
Продолжительность                : 2 ч. 1 м.
Битрейт                          : 4255 Кбит/сек
Ширина                           : 1280 пикс.
Высота                           : 544 пикс.
Соотношение сторон               : 2,35:1
Частота кадров                   : 23,976 кадр/сек
Цветовое пространство            : YUV
Подвыборка цветности             : 4:2:0
Битовая глубина                  : 8 бит
Тип развёртки                    : Прогрессивная
Бит/(Пиксели*Кадры)              : 0.255
Размер потока                    : 3,53 Гбайт (83%)
Библиотека кодирования           : x264 core 116 r2074 2641b9e
Настройки программы              : cabac=1 / ref=10 / deblock=1:-2:-2 / analyse=0x3:0x133 / me=umh / subme=9 / psy=1 / psy_rd=1.00:0.15 / mixed_ref=1 / me_range=32 / chroma_me=1 / trellis=2 / 8x8dct=1 / cqm=0 / deadzone=21,11 / fast_pskip=0 / chroma_qp_offset=-3 / threads=6 / sliced_threads=0 / nr=0 / decimate=1 / interlaced=0 / bluray_compat=0 / constrained_intra=0 / bframes=8 / b_pyramid=2 / b_adapt=2 / b_bias=0 / direct=3 / weightb=1 / open_gop=0 / weightp=2 / keyint=250 / keyint_min=23 / scenecut=40 / intra_refresh=0 / rc=2pass / mbtree=0 / bitrate=4255 / ratetol=1.0 / qcomp=0.70 / qpmin=10 / qpmax=51 / qpstep=4 / cplxblur=20.0 / qblur=0.5 / ip_ratio=1.40 / pb_ratio=1.30 / aq=1:1.00
Язык                             : English
Аудио #1
Идентификатор                    : 2
Формат                           : AC-3
Формат/Информация                : Audio Coding 3
Расширение режима                : CM (complete main)
Идентификатор кодека             : A_AC3
Продолжительность                : 2 ч. 1 м.
Вид битрейта                     : Постоянный
Битрейт                          : 448 Кбит/сек
Канал(ы)                         : 6 канала(ов)
Расположение каналов             : Front: L C R, Side: L R, LFE
Частота                          : 48,0 КГц
Битовая глубина                  : 16 бит
Метод сжатия                     : С потерями
Размер потока                    : 389 Мбайт (9%)
Язык                             : Russian
Аудио #2
Идентификатор                    : 3
Формат                           : AC-3
Формат/Информация                : Audio Coding 3
Расширение режима                : CM (complete main)
Идентификатор кодека             : A_AC3
Продолжительность                : 2 ч. 1 м.
Вид битрейта                     : Постоянный
Битрейт                          : 320 Кбит/сек
Канал(ы)                         : 6 канала(ов)
Расположение каналов             : Front: L C R, Side: L R, LFE
Частота                          : 48,0 КГц
Битовая глубина                  : 16 бит
Метод сжатия                     : С потерями
Размер потока                    : 278 Мбайт (6%)
Язык                             : English
Текст #1
Идентификатор                    : 4
Формат                           : VobSub
Режим смешивания                 : zlib
Идентификатор кодека             : S_VOBSUB
Идентификатор кодека/Информация  : The same subtitle format used on DVDs
Язык                             : Russian
Текст #2
Идентификатор                    : 5
Формат                           : VobSub
Режим смешивания                 : zlib
Идентификатор кодека             : S_VOBSUB
Идентификатор кодека/Информация  : The same subtitle format used on DVDs
Язык                             : English
Меню
00:00:00.000                     : en:Chapter 01
00:08:35.097                     : en:Chapter 02
00:15:20.211                     : en:Chapter 03
00:20:28.143                     : en:Chapter 04
00:29:06.828                     : en:Chapter 05
00:36:52.752                     : en:Chapter 06
00:43:17.011                     : en:Chapter 07
00:49:04.524                     : en:Chapter 08
00:56:09.741                     : en:Chapter 09
01:02:30.371                     : en:Chapter 10
01:08:11.545                     : en:Chapter 11
01:16:17.322                     : en:Chapter 12
01:22:58.098                     : en:Chapter 13
01:30:14.701                     : en:Chapter 14
01:39:33.509                     : en:Chapter 15
01:50:31.166                     : en:Chapter 16
02:01:28.448                     : en:Chapter 17

Скриншоты

                 

_________________
Человек – это канат, натянутый между животным и сверхчеловеком, – канат над пропастью.
В человеке ценно то, что он мост, а не цель. Фридрих Ницше


Last edited by Delia on 2011-09-18 11:11; edited 1 time in total
Other forum [Profile] [PM]
Display posts from previous:    
Reply to topic

The time now is: Today 20:37

All times are GMT + 3 Hours



You cannot post new topics in this forum
You cannot reply to topics in this forum
You cannot edit your posts in this forum
You cannot delete your posts in this forum
You cannot vote in polls in this forum
You cannot attach files in this forum
You cannot download files in this forum