Today is a free download without charge Download

Placebo - Rock im Pott 2012 [2013, Alternative Rock/Indie-Rock/Britpop, HDTV 720p]

Reply to topic
 
Author
Message

Omen ®

Longevity: 8 years 4 months

Posts: 181087

Торрент-статистика

Post 29-Aug-2013 20:38

[Quote]

Placebo - Rock im Pott 2012
Жанр: Alternative Rock/Indie-Rock/Britpop
Продолжительность: 01:06:52
Год выпуска: 2013
Описание: Выступление британского альтернатив-рок бэнда на фестивале Rock im Pott в немецком Гельзенкирхене на Veltins-Arena 2012 aug25
Доп. информация: Собственная запись со спутникового канала WDR 2013 aug24
Показ в рамках программы Rockpalast.
Треклист: Every You Every Me
Black-Eyed
Special Needs
For What It's Worth
I Know
Slave to the Wage
Bright Lights
Meds
Teenage Angst
Song to Say Goodbye
The Bitter End
Running Up That Hill (Kate Bush cover)
Post Blue
B3
Infra-red
Качество: HDTV 720p
Контейнер: TS
Видео кодек: H.264
Аудио кодек: AC3
Видео: Mpeg4 AVC, 1280x720, 8280 kbps, 50 fps Progressive
Аудио: AC3, 448 kbps, 48 kHz, stereo
Аудио 2: MP2, 192 kbps, 48 kHz, stereo
Аудио 3: MP2, 192 kbps, 48 kHz, stereo

Отчёт MediaInfo / BDInfo

GeneralID : 1 (0x1)Complete name : D:\Downloads\Placebo - Rock im Pott 2012.tsFormat : MPEG-TSFile size : 4.48 GiBDuration : 1h 6mnOverall bit rate mode : VariableOverall bit rate : 9 594 Kbps
VideoID : 5501 (0x157D)Menu ID : 1 (0x1)Format : AVCFormat/Info : Advanced Video CodecFormat profile : [email protected] settings, CABAC : YesFormat settings, ReFrames : 4 framesCodec ID : 27Duration : 1h 6mnBit rate : 8 280 KbpsWidth : 1 280 pixelsHeight : 720 pixelsDisplay aspect ratio : 16:9Frame rate : 50.000 fpsColor space : YUVChroma subsampling : 4:2:0Bit depth : 8 bitsScan type : ProgressiveBits/(Pixel*Frame) : 0.180Stream size : 3.87 GiB (86%)
Audio #1ID : 5502 (0x157E)Menu ID : 1 (0x1)Format : MPEG AudioFormat version : Version 1Format profile : Layer 2Codec ID : 3Duration : 1h 6mnBit rate mode : ConstantBit rate : 192 KbpsChannel(s) : 2 channelsSampling rate : 48.0 KHzCompression mode : LossyStream size : 91.8 MiB (2%)Language : German
Audio #2ID : 5503 (0x157F)Menu ID : 1 (0x1)Format : MPEG AudioFormat version : Version 1Format profile : Layer 2Codec ID : 3Duration : 1h 6mnBit rate mode : ConstantBit rate : 192 KbpsChannel(s) : 2 channelsSampling rate : 48.0 KHzCompression mode : LossyStream size : 91.8 MiB (2%)
Audio #3ID : 5506 (0x1582)Menu ID : 1 (0x1)Format : AC-3Format/Info : Audio Coding 3Mode extension : CM (complete main)Format settings, Endianness : BigCodec ID : 6Duration : 1h 6mnBit rate mode : ConstantBit rate : 448 KbpsChannel(s) : 2 channelsChannel positions : Front: L RSampling rate : 48.0 KHzBit depth : 16 bitsCompression mode : LossyStream size : 214 MiB (5%)Language : German
TextID : 5504 (0x1580)-100Menu ID : 1 (0x1)Format : TeletextLanguage : German
MenuID : 5520 (0x1590)Menu ID : 1 (0x1)Duration : 1h 6mnList : 5501 (0x157D) (AVC) / 5503 (0x157F) (MPEG Audio) / 5506 (0x1582) (AC-3, German) / 5502 (0x157E) (MPEG Audio, German) / 5504 (0x1580) ()Language : / / German / German

Скриншоты

Other forum [Profile] [PM]
Display posts from previous:    
Reply to topic

The time now is: Today 10:09

All times are GMT + 3 Hours



You cannot post new topics in this forum
You cannot reply to topics in this forum
You cannot edit your posts in this forum
You cannot delete your posts in this forum
You cannot vote in polls in this forum
You cannot attach files in this forum
You cannot download files in this forum