Today is a free download without charge Download

Imagine Dragons • Live From The Artists Den [2013, Indie Rock, HDTV 1080i]

Reply to topic
 
Author
Message

Omen ®

Longevity: 8 years 3 months

Posts: 181087

Торрент-статистика

Post 29-Aug-2013 12:30

[Quote]





Жанр: Indie Rock
Продолжительность: 00:54:00
Год выпуска: June 4, 2013

Imagine Dragons

Dan Reynolds - vocals
Ben McKee - bass, vocals
Wanye "Wing" Sermon - guitar, vocals
Daniel Platzman - drums, viola, vocals
with
Ryan Walker - keyboards, guitar, percussion, vocals

Imagine Dragons — американская инди-группа, образованная в Лас-Вегасе, штат Невада. Стали известны после выпуска их дебютного студийного альбома Night Visions в сентябре 2012 года. Американский журнал Billboard назвал их самыми яркими новыми звёздами 2012 года, а журнал Rolling Stone назвали их сингл «Radioactive» самым большим рок-хитом года.

Треклист

01 Round And Round
02 Amsterdam
03 Tiptoe
04 Hear Me
05 Cha-Ching (Till We Grow Older)
06 Rocks
07 Demons
08 Radioactive
09 On Top Of The World
10 It's Time
Качество: HDTV 1080i
Контейнер: TS
Видео кодек: MPEG2
Аудио кодек: AC3
Видео: MPEG2 Video 1920x1080 29.97fps 12.5 Mbps
Аудио: Dolby AC3 48000Hz 6ch 384kbps

Отчёт MediaInfo / BDInfo

GeneralID : 1 (0x1)Complete name : E:\Imagine Dragons - Live From The Artists Den.tsFormat : MPEG-TSFile size : 5.13 GiBDuration : 54mn 0sOverall bit rate mode : VariableOverall bit rate : 13.6 Mbps
VideoID : 288 (0x120)Menu ID : 1 (0x1)Format : MPEG VideoFormat version : Version 2Format profile : [email protected] settings, BVOP : NoFormat settings, Matrix : CustomFormat settings, GOP : VariableCodec ID : 2Duration : 53mn 59sBit rate mode : VariableBit rate : 12.5 MbpsMaximum bit rate : 65.0 MbpsWidth : 1 920 pixelsHeight : 1 080 pixelsDisplay aspect ratio : 16:9Frame rate : 29.970 fpsColor space : YUVChroma subsampling : 4:2:0Bit depth : 8 bitsScan type : InterlacedScan order : Top Field FirstCompression mode : LossyBits/(Pixel*Frame) : 0.202Time code of first frame : 00:00:00;00Time code source : Group of pictures headerStream size : 4.73 GiB (92%)
AudioID : 289 (0x121)Menu ID : 1 (0x1)Format : AC-3Format/Info : Audio Coding 3Mode extension : CM (complete main)Format settings, Endianness : BigCodec ID : 129Duration : 53mn 59sBit rate mode : ConstantBit rate : 384 KbpsChannel(s) : 6 channelsChannel positions : Front: L C R, Side: L R, LFESampling rate : 48.0 KHzBit depth : 16 bitsCompression mode : LossyDelay relative to video : 20msStream size : 148 MiB (3%)Language : English
Other forum [Profile] [PM]
Display posts from previous:    
Reply to topic

The time now is: Today 20:57

All times are GMT + 3 Hours



You cannot post new topics in this forum
You cannot reply to topics in this forum
You cannot edit your posts in this forum
You cannot delete your posts in this forum
You cannot vote in polls in this forum
You cannot attach files in this forum
You cannot download files in this forum