Today is a free download without charge Download

Останься / Stay (Марк Форстер) [2005 г., триллер, драма, детектив, BDRip720p]

Reply to topic
 
Author
Message

Delia ®

Gender:

Longevity: 9 years 6 months

Posts: 1821

Торрент-статистика

Post 17-Sep-2011 10:43

[Quote]

ОстаньсяStay Год выпуска: 2005
Страна: США
Жанр: триллер, драма, детектив
Продолжительность: 01:38:55
Перевод: Профессиональный (двухголосый)
Режиссер: Марк Форстер
Продюссер: Эрик Копелофф, Том Лассалли, Арнон Милчэн
Сценарий: Дэвид Бениофф
Бюджет: $50 000 000
Премьера в мире: 24 сентября 2005
В ролях: Юэн МакГрегор, Райан Гослинг, Кейт Бёртон, Наоми Уоттс, Элизабет Ризер, Боб Хоскинс, Джанин Гарофало, Б.Д. Вонг, Джон Торми, Хосе Рамон Росарио
Описание: Находящийся на грани помешательства студент Генри Лезем рассказывает психиатру Сэму Фостеру о том, что покончит с собой в субботу в полночь. Не желая допустить гибели Генри, Сэм решает сделать все от него зависящее, чтобы избавить парня от навязчивой идеи.Он отправляется вместе с ним в путешествие по городу, в ходе которого и сам постепенно начинает погружаться в кошмарные иллюзии пациента, вместе с ним балансируя на тонкой грани между жизнью и смертью...
Качество: BDRip720p
Формат: MKV
Видео кодек: H.264
Аудио кодек: AC3
Видео: English, 5560 Кбит/сек, 1280*544 (2,35:1), в 23,976 кадр/сек, AVC ([email protected])
Аудио: Russian, 448 Кбит/сек, 48,0 КГц, 16 бит, 6 канала(ов), AC-3(двухголосый закадровый) НТВ+
Аудио: English, 320 Кбит/сек, 48,0 КГц, 16 бит, 6 канала(ов), AC-3
Субтитры:Russian,English (srt)
Дополнительно отдельными файлами :
Аудио: Russian,448 Кбит/сек, 48,0 КГц, 16 бит, 6 канала(ов), AC-3(одноголосый закадровый) Немахов
Аудио: Russian,192 Кбит/сек, 48,0 КГц, 16 бит, 2 канала(ов), AC-3(многоголосый закадровый)

MI:

Код:
Общее
Уникальный идентификатор         : 225723751463494190559726574239522011672 (0xA9D0D02E8CCC806B872B77C59DC4BA18)
Полное имя                       : E:\торрент\Stay.(2005)BDRip720p\Stay.(2005)BDRip720p.mkv
Формат                           : Matroska
Размер файла                     : 4,37 Гбайт
Продолжительность                : 1 ч. 38 м.
Общий поток                      : 6329 Кбит/сек
Дата кодирования                 : UTC 2011-09-17 05:47:47
Программа кодирования            : mkvmerge v4.9.1 ('Ich will') built on Jul 11 2011 23:53:15
Библиотека кодирования           : libebml v1.2.1 + libmatroska v1.1.1
Видео
Идентификатор                    : 1
Формат                           : AVC
Формат/Информация                : Advanced Video Codec
Профиль формата                  : [email protected]
Параметр CABAC формата           : Да
Параметр ReFrames формата        : 10 кадры
Идентификатор кодека             : V_MPEG4/ISO/AVC
Продолжительность                : 1 ч. 38 м.
Битрейт                          : 5560 Кбит/сек
Ширина                           : 1280 пикс.
Высота                           : 544 пикс.
Соотношение сторон               : 2,35:1
Частота кадров                   : 23,976 кадр/сек
Цветовое пространство            : YUV
Подвыборка цветности             : 4:2:0
Битовая глубина                  : 8 бит
Тип развёртки                    : Прогрессивная
Бит/(Пиксели*Кадры)              : 0.333
Размер потока                    : 3,76 Гбайт (86%)
Библиотека кодирования           : x264 core 116 r2074 2641b9e
Настройки программы              : cabac=1 / ref=10 / deblock=1:-3:-3 / analyse=0x3:0x133 / me=umh / subme=9 / psy=1 / psy_rd=1.00:0.15 / mixed_ref=1 / me_range=32 / chroma_me=1 / trellis=2 / 8x8dct=1 / cqm=0 / deadzone=21,11 / fast_pskip=0 / chroma_qp_offset=-3 / threads=6 / sliced_threads=0 / nr=0 / decimate=1 / interlaced=0 / bluray_compat=0 / constrained_intra=0 / bframes=8 / b_pyramid=2 / b_adapt=2 / b_bias=0 / direct=3 / weightb=1 / open_gop=0 / weightp=2 / keyint=250 / keyint_min=23 / scenecut=40 / intra_refresh=0 / rc=2pass / mbtree=0 / bitrate=5560 / ratetol=1.0 / qcomp=0.80 / qpmin=10 / qpmax=51 / qpstep=4 / cplxblur=20.0 / qblur=0.5 / ip_ratio=1.40 / pb_ratio=1.30 / aq=1:1.00
Язык                             : English
Аудио #1
Идентификатор                    : 2
Формат                           : AC-3
Формат/Информация                : Audio Coding 3
Расширение режима                : CM (complete main)
Идентификатор кодека             : A_AC3
Продолжительность                : 1 ч. 38 м.
Вид битрейта                     : Постоянный
Битрейт                          : 448 Кбит/сек
Канал(ы)                         : 6 канала(ов)
Расположение каналов             : Front: L C R, Side: L R, LFE
Частота                          : 48,0 КГц
Битовая глубина                  : 16 бит
Метод сжатия                     : С потерями
Размер потока                    : 317 Мбайт (7%)
Язык                             : Russian
Аудио #2
Идентификатор                    : 3
Формат                           : AC-3
Формат/Информация                : Audio Coding 3
Расширение режима                : CM (complete main)
Идентификатор кодека             : A_AC3
Продолжительность                : 1 ч. 38 м.
Вид битрейта                     : Постоянный
Битрейт                          : 320 Кбит/сек
Канал(ы)                         : 6 канала(ов)
Расположение каналов             : Front: L C R, Side: L R, LFE
Частота                          : 48,0 КГц
Битовая глубина                  : 16 бит
Метод сжатия                     : С потерями

Скриншоты

       

_________________
Человек – это канат, натянутый между животным и сверхчеловеком, – канат над пропастью.
В человеке ценно то, что он мост, а не цель. Фридрих Ницше
Other forum [Profile] [PM]
Similar theme
Forum Topic Author Torrent Replies Last Post
./templates/default/images/folder_dl.gif Обучающее видео [Pluralsight.com] Как увеличить прибыльность бизнеса добавив цель / How to Add Profit to Your Business by Adding Purpose [2015, постановка целей, HDRip, ENG] (Видеоурок) Omen
1 | 0

0 | 1375

10

2016-01-08 18:00
Omen Latest
Display posts from previous:    
Reply to topic

The time now is: Today 08:50

All times are GMT + 3 Hours



You cannot post new topics in this forum
You cannot reply to topics in this forum
You cannot edit your posts in this forum
You cannot delete your posts in this forum
You cannot vote in polls in this forum
You cannot attach files in this forum
You cannot download files in this forum