Today is a free download without charge Download

CocoRosie - Aufnahmezustand - A Recording Session [2012, Experimental, Folk, HDTV 720p]

Reply to topic
 
Author
Message

Omen ®

Longevity: 8 years 4 months

Posts: 181087

Торрент-статистика

Post 29-Aug-2013 02:01

[Quote]

CocoRosie
- Aufnahmezustand - A Recording Session -



Жанр: Experimental, Folk
Продолжительность: 00:45:58
Год выпуска: 2012

Треклист

Intro
Tearz for Animals
God Has a Voice
K-Hole
Fairy Paradise
We Are On Fire
(Rajasthan Roots music)
Turn Me On

CocoRosie

Bianca Cassady: vocals, flute
Sierra Cassady: vocals, harp
Tez (Vincent Garlentezec): beatbox
Takuya Nakamura: piano, keyboard
Josh Werner: bass
The Rajasthan Roots (unknown band members)
CocoRosie — американский дуэт, в который входят две сестры: Бьянка Лейлани «Коко» Кэседи (англ. Bianca Leilani «Coco» Casady) и Сьерра Роуз «Рози» Кэседи (англ. Sierra Rose «Rosie» Casady). Название CocoRosie произошло от имен которыми звала в детстве девочек их мать Тина Хантер. Индианки-полукровки, плоды вальдорфского воспитания, чудачки и непоседы Сьерра и Бьянка Кэседи в один воистину прекрасный день решили превратить свои детские шалости в музыку. Сьерра, обучавшаяся оперному пению, подыгрывает на гитаре и флейте. У Бьянки удивительный мяукающий голосок, она в ответе за основной вокал, перкуссию и экзотические звуки.
Запись дебютного альбома La Maison de Mon Reve (2004) велась в апартаментах Сьерры на Монмартре. Скрипы дверей, треск заводных игрушек, случайные шорохи — странная музыка сестер Кэседи удивляет и завораживает. Альбом был выпущен независимым американским лейблом Touch and Go. Вторая пластинка, Noah’s Ark, вышла осенью 2005-го при содействии Энтони Хегарти, Девендры Банхарта и французского рэпера Сплин. Над саундом третьего «студийного» релиза девичьего дуэта, The Adventures of Ghosthorse and Stillborn, трудился продюсер самой известной в мире исландки. На четвертом лонг-плее, Grey Oceans, сестры Кэседи отошли от привычного звучания и забросили детские игрушки, которые обычно слышно на фоне. Пятая работа, Tales Of A GrassWidow увидел свет 28 мая 2013 года
Материал из Википедии — свободной энциклопедии
Качество: HDTV 720p
Контейнер: TS
Видео кодек: H.264
Аудио кодек: AC3
Видео: MPEG4 Video (H264) 1280x720 50fps 10.1 Mbps
Аудио: Dolby AC3 48000Hz stereo 448kbps

Отчёт MediaInfo / BDInfo

GeneralID : 1 (0x1)Complete name : E:\CocoRosie - Aufnahmezustand - A Recording Session.tsFormat : MPEG-TSFile size : 3.58 GiBDuration : 45mn 58sOverall bit rate mode : VariableOverall bit rate : 11.1 Mbps
VideoID : 4113 (0x1011)Menu ID : 1 (0x1)Format : AVCFormat/Info : Advanced Video CodecFormat profile : [email protected] settings, CABAC : YesFormat settings, ReFrames : 6 framesCodec ID : 27Duration : 45mn 58sBit rate : 10.1 MbpsWidth : 1 280 pixelsHeight : 720 pixelsDisplay aspect ratio : 16:9Frame rate : 50.000 fpsColor space : YUVChroma subsampling : 4:2:0Bit depth : 8 bitsScan type : ProgressiveBits/(Pixel*Frame) : 0.220Stream size : 3.25 GiB (91%)Color primaries : BT.709Transfer characteristics : BT.709Matrix coefficients : BT.709
AudioID : 4352 (0x1100)Menu ID : 1 (0x1)Format : AC-3Format/Info : Audio Coding 3Mode extension : CM (complete main)Format settings, Endianness : BigCodec ID : 129Duration : 45mn 58sBit rate mode : ConstantBit rate : 448 KbpsChannel(s) : 2 channelsChannel positions : Front: L RSampling rate : 48.0 KHzBit depth : 16 bitsCompression mode : LossyDelay relative to video : 13msStream size : 147 MiB (4%)Language : German
Other forum [Profile] [PM]
Display posts from previous:    
Reply to topic

The time now is: Today 14:17

All times are GMT + 3 Hours



You cannot post new topics in this forum
You cannot reply to topics in this forum
You cannot edit your posts in this forum
You cannot delete your posts in this forum
You cannot vote in polls in this forum
You cannot attach files in this forum
You cannot download files in this forum