Today is a free download without charge Download

Rockpalast Archiv • Jack Bruce • Swing In • 1972 [2013, Rock, HDTV 720p]

Reply to topic
 
Author
Message

Omen ®

Longevity: 8 years 4 months

Posts: 181087

Торрент-статистика

Post 28-Aug-2013 21:07

[Quote]

Rockpalast - From The Archives:
Jack Bruce Swing In 1972



Жанр: Rock
Продолжительность: 00:28:56
Год выпуска: broadcast June 24, 2013

Треклист

You Burned The Tables On Me
Theme For An Imaginary Western
Politician
Interview
Rope Ladder To The Moon
Folk Song
Качество: HDTV 720p
Контейнер: TS
Видео кодек: H.264
Аудио кодек: AC3
Видео: MPEG4 Video (H264) 1280x720 50fps 8545Kbps
Аудио 1: MPEG Audio 48000Hz stereo 192kbps German
Аудио 2: MPEG Audio 48000Hz stereo 192kbps
Аудио 3: Dolby AC3 48000Hz stereo 448kbps

Отчёт MediaInfo / BDInfo

GeneralID : 1201 (0x4B1)Complete name : E:\Jack Bruce - Swing In - Rockpalast, Februar 11, 1972.tsFormat : MPEG-TSFile size : 2.00 GiBDuration : 28mn 56sOverall bit rate mode : VariableOverall bit rate : 9 874 Kbps
VideoID : 5501 (0x157D)Menu ID : 28330 (0x6EAA)Format : AVCFormat/Info : Advanced Video CodecFormat profile : [email protected] settings, CABAC : YesFormat settings, ReFrames : 4 framesCodec ID : 27Duration : 28mn 56sBit rate : 8 545 KbpsWidth : 1 280 pixelsHeight : 720 pixelsDisplay aspect ratio : 16:9Frame rate : 50.000 fpsColor space : YUVChroma subsampling : 4:2:0Bit depth : 8 bitsScan type : ProgressiveBits/(Pixel*Frame) : 0.185Stream size : 1.73 GiB (87%)
Audio #1ID : 5502 (0x157E)Menu ID : 28330 (0x6EAA)Format : MPEG AudioFormat version : Version 1Format profile : Layer 2Codec ID : 3Duration : 28mn 56sBit rate mode : ConstantBit rate : 192 KbpsChannel(s) : 2 channelsSampling rate : 48.0 KHzCompression mode : LossyDelay relative to video : 71msStream size : 39.7 MiB (2%)Language : German
Audio #2ID : 5503 (0x157F)Menu ID : 28330 (0x6EAA)Format : MPEG AudioFormat version : Version 1Format profile : Layer 2Codec ID : 3Duration : 28mn 56sBit rate mode : ConstantBit rate : 192 KbpsChannel(s) : 2 channelsSampling rate : 48.0 KHzCompression mode : LossyDelay relative to video : 71msStream size : 39.7 MiB (2%)
Audio #3ID : 5506 (0x1582)Menu ID : 28330 (0x6EAA)Format : AC-3Format/Info : Audio Coding 3Mode extension : CM (complete main)Format settings, Endianness : BigCodec ID : 6Duration : 28mn 56sBit rate mode : ConstantBit rate : 448 KbpsChannel(s) : 2 channelsChannel positions : Front: L RSampling rate : 48.0 KHzBit depth : 16 bitsCompression mode : LossyDelay relative to video : 43msStream size : 92.7 MiB (5%)Language : German
Other forum [Profile] [PM]
Display posts from previous:    
Reply to topic

The time now is: Today 12:38

All times are GMT + 3 Hours



You cannot post new topics in this forum
You cannot reply to topics in this forum
You cannot edit your posts in this forum
You cannot delete your posts in this forum
You cannot vote in polls in this forum
You cannot attach files in this forum
You cannot download files in this forum