Today is a free download without charge Download

Discovery: Воздушные дальнобойщики. Серия №4 / Dangerous Flights (2012) IPTVRip

Reply to topic
 
Author
Message

UndegraundMen ®

Longevity: 7 years 7 months

Posts: 25145

Торрент-статистика

Post 27-Aug-2013 23:01

[Quote]

Discovery: Воздушные дальнобойщики. Серия №4 / Dangerous Flights (2012) IPTVRip - Режиссер / Телекомпания: Discovery
Русское название: Воздушные дальнобойщики
Оригинальное название: Dangerous Flights
Год выпуска: 2012
Жанр: Документальный, познавательный, приключения, строительство
Выпущено: Канада, Pixcom Production INK.
Описание:
Это рубеж авиации. Бесстрашные пилоты поднимаются на маленьких подержаных самолетах. Они летают там, где не пройдет ни один самолет. Они принимаются за самые опасные задания. Летают в самую опасную погоду и выживают в любых условиях, но пока есть деньги и топливо, они снова отправляются в полет.
Режиссёр: Джон Дрифтмайер, Лионель Годар, Марк Миллер
В выпуске: 04. Фактор страха
Кори нанимает опытных пилотов Пита и Бреда, чтобы перегнать самолет из Великобритании в США. Но Пит увидел трагическую катастрофу на авиагонках в Рено и отказывается от полета.
Перевод: Одноголосый закадровый
Продолжительность: ~ 00:42:36
Видеокодек: XVID
Битрейт видео: ~1800 kb/s
Размер кадра: 720 x 400
Качество видео: IPTVRip
Аудиокодек: MP3, 2ch.
Битрейт аудио: 192 kb/s

MediaInfo

Формат : AVI
Формат/Информация : Audio Video Interleave
Размер файла : 611 Мбайт
Продолжительность : 42 м.
Общий поток : 2005 Кбит/сек
Программа кодирования : VirtualDubMod 1.5.10.3 | www.virtualdub-fr.org || (build 2550/release)
Библиотека кодирования : VirtualDubMod build 2550/release
Видео
Идентификатор : 0
Формат : MPEG-4 Visual
Профиль формата : Advanced [email protected]
Параметр BVOP формата : 1
Параметр QPel формата : Нет
Параметр GMC формата : Без точки перехода
Параметр матрицы формата : Default (H.263)
Идентификатор кодека : XVID
Идентификатор кодека/Подсказка : XviD
Продолжительность : 42 м.
Битрейт : 1804 Кбит/сек
Ширина : 720 пикселей
Высота : 400 пикселей
Соотношение сторон : 16:9
Частота кадров : 25,000 кадров/сек
Цветовое пространство : YUV
Субдискретизация насыщенности : 4:2:0
Битовая глубина : 8 бит
Тип развёртки : Прогрессивная
Метод сжатия : С потерями
Бит/(Пиксели*Кадры) : 0.251
Размер потока : 550 Мбайт (90%)
Библиотека кодирования : XviD 1.2.1 (UTC 2008-12-04)
Аудио
Идентификатор : 1
Формат : MPEG Audio
Версия формата : Version 1
Профиль формата : Layer 3
Идентификатор кодека : 55
Идентификатор кодека/Подсказка : MP3
Продолжительность : 42 м.
Вид битрейта : Постоянный
Битрейт : 192 Кбит/сек
Каналы : 2 канала
Частота : 48,0 КГц
Метод сжатия : С потерями
Размер потока : 58,5 Мбайт (10%)
Выравнивание : Соединение по промежуткам
Продолжительность промежутка : 40 мс. (1,00 видеокадр)
Время предзагрузки промежутка : 504 мс.
Библиотека кодирования : LAME3.99r
Настройки программы : -m s -V 4 -q 0 -lowpass 18.6 -b 192
Скриншоты:          
Other forum [Profile] [PM]
Display posts from previous:    
Reply to topic

The time now is: Today 07:36

All times are GMT + 3 Hours



You cannot post new topics in this forum
You cannot reply to topics in this forum
You cannot edit your posts in this forum
You cannot delete your posts in this forum
You cannot vote in polls in this forum
You cannot attach files in this forum
You cannot download files in this forum