Today is a free download without charge Download

Тариф "Счастливая семья" (Алина Чеботарёва) [2013, Россия, Мелодрама, HDTV 1080i]

Reply to topic
 
Author
Message

Omen ®

Longevity: 8 years 10 months

Posts: 181086

Торрент-статистика

Post 27-Aug-2013 20:44

[Quote]

Тариф "Счастливая семья". ( Эфир от 25.08.2013 ) Страна: Россия
Жанр: Мелодрама
Год выпуска: 2013
Продолжительность: 01:29:32
Перевод: Не требуется
Cубтитры: нет
Режиссер: Алина Чеботарёва
В ролях: Мария Андреева, Алексей Анищенко, Кирилл Жандаров, Евгений Капорин, Сергей Романюк
Описание:
Нина получает известие о том, что ее дедушка Павел Алексеевич Назаров попал в больницу с обширным инфарктом. Девушка срочно выезжает в Старосельск, чтобы выяснить, что случилось с ее дедом.
Когда Нина приезжает в городок, к ней начинают проявлять внимания ее бывший одноклассник, хамоватый предприниматель Славик, и приемник ее деда на должности директора школы, неуверенный в себе Антон. Да еще к ней по пустякам каждый раз придирается оперативник Виктор.
Нина просит приехать своего столичного жениха, однокурсника Кирилла, и привезти из Москвы лекарство для Павла Алексеевича. Все мужчины, окружающие Нину проявляют себя по-разному. Нина переживает измену, предательство, подлость и все равно верит, что у нее будет семейное счастье.

Сэмпл: http://sendfile.su/858454
Качество: HDTV 1080i
Контейнер: TS
Видео: AVC/H.264, 1920x1080 (16:9), 5825 Кбит/сек, 25.000 fps
Аудио: Mp2, 48000 Hz, 192 Кбит/сек, 2 ch

MediaInfo

Видео
Идентификатор : 306 (0x132)
Идентификатор меню : 1 (0x1)
Формат : AVC
Формат/Информация : Advanced Video Codec
Профиль формата : High@L4.0
Параметр CABAC формата : Да
Параметр ReFrames формата : 3 кадра
Идентификатор кодека : 27
Продолжительность : 1 ч. 29 м.
Битрейт : 5825 Кбит/сек
Ширина : 1920 пикселей
Высота : 1080 пикселей
Соотношение сторон : 16:9
Частота кадров : 25,000 кадров/сек
Стандарт вещания : Component
Цветовое пространство : YUV
Субдискретизация насыщенности : 4:2:0
Битовая глубина : 8 бит
Тип развёртки : Чересстрочная
Порядок развёртки : Верхнее поле первое
Бит/(Пиксели*Кадры) : 0.112
Размер потока : 3,64 Гбайт (92%)
Основные цвета : BT.709
Характеристики трансфера : BT.709
Коэффициенты матрицы : BT.709
Аудио
Идентификатор : 406 (0x196)
Идентификатор меню : 1 (0x1)
Формат : MPEG Audio
Версия формата : Version 1
Профиль формата : Layer 2
Идентификатор кодека : 3
Продолжительность : 1 ч. 29 м.
Вид битрейта : Постоянный
Битрейт : 192 Кбит/сек
Каналы : 2 канала
Частота : 48,0 КГц
Метод сжатия : С потерями
Размер потока : 123 Мбайт (3%)

Скриншот c названием фильма

Скриншоты

Other forum [Profile] [PM]
Display posts from previous:    
Reply to topic

The time now is: Today 22:40

All times are GMT + 3 Hours



You cannot post new topics in this forum
You cannot reply to topics in this forum
You cannot edit your posts in this forum
You cannot delete your posts in this forum
You cannot vote in polls in this forum
You cannot attach files in this forum
You cannot download files in this forum