Today is a free download without charge Download

(OST) Из нового мира / Shinsekai Yori [OST Collection] [4CD] - 2012-2013 гг., FLAC (tracks+.cue), lossless

Reply to topic
 
Author
Message

Omen ®

Longevity: 9 years 1 month

Posts: 181086

Торрент-статистика

Post 27-Aug-2013 12:36

[Quote]

Из нового мира / Shinsekai Yori
Композиторы: Комори Сигэо / Komori Shigeo (小森茂生), Одзаки Тикара / Ozaki Chikara (尾崎力)
Год выпуска: 2012-2013 гг.
Страна: Япония
Аудио кодек: FLAC (*.flac)
Тип рипа: tracks+.cue
Битрейт аудио: lossless
Продолжительность: 02:27:35
Наличие сканов в содержимом раздачи: да
Треклист:

OP, ED1, ED2 Single - Wareta Ringo (割れたリンゴ) / Yuki ni Saku Hana (雪に咲く花)

OP, ED1, ED2 Single - Wareta Ringo (割れたリンゴ) / Yuki ni Saku Hana (雪に咲く花)
Исполнители: Танэда Риса / Taneda Risa (種田梨沙), Ханадзава Кана / Hanazawa Kana (花澤香菜)
Композиторы: Одзаки Тикара / Ozaki Chikara (尾崎力), Комори Сигэо / Komori Shigeo (小森茂生)
Год выпуска: 2013 г.
Страна: Япония
Аудио кодек: FLAC (*.flac)
Тип рипа: tracks+.cue
Битрейт аудио: lossless
Продолжительность: 00:18:14
Треклист:
01. Wareta Ringo (割れたリンゴ)
02. Yuki ni Saku Hana (雪に咲く花)
03. Wareta Ringo (割れたリンゴ) (Instrumental)
04. Yuki ni Saku Hana (雪に咲く花) (Instrumental)

Лог проверки качества

AUDIOCHECKER v2.0 beta (build 457) - by Dester - [email protected]~~~~~~~~~~~~~~~~~~~~~~~~~~~~~~~~~~
Начато: вторник, 27. 08. 2013. - 8:47.27Найдено файлов: 4
1 -===- D:\Марина\Music - OST\Shinsekai Yori OST [FLAC]\OP, ED1, ED2 Single - Wareta Ringo, Yuki ni Saku Hana\01. Wareta Ringo.flac Извлечение успешно выполнено Заключение: этот трек - CDDA с вероятностью 98% Временный файл удалён.
2 -===- D:\Марина\Music - OST\Shinsekai Yori OST [FLAC]\OP, ED1, ED2 Single - Wareta Ringo, Yuki ni Saku Hana\02. Yuki ni Saku Hana.flac Извлечение успешно выполнено Заключение: этот трек - CDDA с вероятностью 100% Временный файл удалён.
3 -===- D:\Марина\Music - OST\Shinsekai Yori OST [FLAC]\OP, ED1, ED2 Single - Wareta Ringo, Yuki ni Saku Hana\03. Wareta Ringo (Instrumental).flac Извлечение успешно выполнено Заключение: этот трек - CDDA с вероятностью 100% Временный файл удалён.
4 -===- D:\Марина\Music - OST\Shinsekai Yori OST [FLAC]\OP, ED1, ED2 Single - Wareta Ringo, Yuki ni Saku Hana\04. Yuki ni Saku Hana (Instrumental).flac Извлечение успешно выполнено Заключение: этот трек - CDDA с вероятностью 100% Временный файл удалён.
Завершено: вторник, 27. 08. 2013. - 8:48.12 (Время операции: 0:00.44)

Original Soundtrack 1

Original Soundtrack 1
Композиторы: Комори Сигэо / Komori Shigeo (小森茂生), Одзаки Тикара / Ozaki Chikara (尾崎力)
Год выпуска: 2012 г.
Страна: Япония
Аудио кодек: FLAC (*.flac)
Тип рипа: tracks+.cue
Битрейт аудио: lossless
Продолжительность: 00:41:35
Треклист:
01. Kage no Denshouka Daiichibu (陰の伝承歌 第一部)
02. Darkside of Heart
03. Quiet Village
04. Dark Village
05. Akki
06. Theme of Daikangi-tei
07. Sign of Jyuryoku
08. Friendship
09. Night Canoe
10. Daily Pleasure
11. Game Battle #1
12. Loneliness
13. Strange Feeling
14. Time Lapse
15. Down The River
16. Battle Mode PI #1
17. Battle Mode PA #2
18. Creeping Crisis
19. Deep Forest #2
20. Confession
21. Sad Song
22. Wareta Ringo (割れたリンゴ) (TV edit)

Лог создания рипа

Exact Audio Copy V1.0 beta 3 from 29. August 2011
EAC extraction logfile from 5. December 2012, 19:20
Various Artists / 新世界より オリジナルサウンドトラックCD1
Used drive : HL-DT-STBD-RE BH10LS30 Adapter: 3 ID: 0
Read mode : Burst
Read offset correction : 0Overread into Lead-In and Lead-Out : NoFill up missing offset samples with silence : YesDelete leading and trailing silent blocks : NoNull samples used in CRC calculations : YesUsed interface : Native Win32 interface for Win NT & 2000Gap handling : Not detected, thus appended to previous track
Used output format : Internal WAV RoutinesSample format : 44.100 Hz; 16 Bit; Stereo
TOC of the extracted CD
Track | Start | Length | Start sector | End sector --------------------------------------------------------- 1 | 0:00.00 | 1:40.50 | 0 | 7549 2 | 1:40.50 | 2:44.27 | 7550 | 19876 3 | 4:25.02 | 2:00.55 | 19877 | 28931 4 | 6:25.57 | 2:02.42 | 28932 | 38123 5 | 8:28.24 | 1:41.09 | 38124 | 45707 6 | 10:09.33 | 2:00.21 | 45708 | 54728 7 | 12:09.54 | 1:40.17 | 54729 | 62245 8 | 13:49.71 | 1:51.51 | 62246 | 70621 9 | 15:41.47 | 1:51.69 | 70622 | 79015 10 | 17:33.41 | 1:44.11 | 79016 | 86826 11 | 19:17.52 | 1:49.50 | 86827 | 95051 12 | 21:07.27 | 1:48.30 | 95052 | 103181 13 | 22:55.57 | 1:47.52 | 103182 | 111258 14 | 24:43.34 | 2:06.41 | 111259 | 120749 15 | 26:50.00 | 2:02.29 | 120750 | 129928 16 | 28:52.29 | 1:45.22 | 129929 | 137825 17 | 30:37.51 | 1:47.01 | 137826 | 145851 18 | 32:24.52 | 1:57.17 | 145852 | 154643 19 | 34:21.69 | 1:53.52 | 154644 | 163170 20 | 36:15.46 | 1:52.70 | 163171 | 171640 21 | 38:08.41 | 1:54.64 | 171641 | 180254 22 | 40:03.30 | 1:31.08 | 180255 | 187087
Track 1
Filename E:\shinsekai yori\vol.1\FullDisc\SHINSEKAIYORI_1\OST\01 陰の伝承歌 第一部.wav
Peak level 99.8 % Extraction speed 17.8 X Copy CRC EB828C35 Copy OK
Track 2
Filename E:\shinsekai yori\vol.1\FullDisc\SHINSEKAIYORI_1\OST\02 Darkside of Heart.wav
Peak level 99.8 % Extraction speed 19.8 X Copy CRC 9105DAC9 Copy OK
Track 3
Filename E:\shinsekai yori\vol.1\FullDisc\SHINSEKAIYORI_1\OST\03 Quiet Village.wav
Peak level 99.8 % Extraction speed 21.1 X Copy CRC 0D3F1BF6 Copy OK
Track 4
Filename E:\shinsekai yori\vol.1\FullDisc\SHINSEKAIYORI_1\OST\04 Dark Village.wav
Peak level 99.8 % Extraction speed 22.2 X Copy CRC 1B4E4D67 Copy OK
Track 5
Filename E:\shinsekai yori\vol.1\FullDisc\SHINSEKAIYORI_1\OST\05 Akki.wav
Peak level 99.1 % Extraction speed 23.1 X Copy CRC B8271C1C Copy OK
Track 6
Filename E:\shinsekai yori\vol.1\FullDisc\SHINSEKAIYORI_1\OST\06 Theme of Daikangi-tei.wav
Peak level 99.8 % Extraction speed 23.9 X Copy CRC 60A49D67 Copy OK
Track 7
Filename E:\shinsekai yori\vol.1\FullDisc\SHINSEKAIYORI_1\OST\07 Sign of Jyuryouku.wav
Peak level 99.8 % Extraction speed 24.8 X Copy CRC 2E92847C Copy OK
Track 8
Filename E:\shinsekai yori\vol.1\FullDisc\SHINSEKAIYORI_1\OST\08 Friendship.wav
Peak level 98.7 % Extraction speed 25.6 X Copy CRC 7D26ADD3 Copy OK
Track 9
Filename E:\shinsekai yori\vol.1\FullDisc\SHINSEKAIYORI_1\OST\09 Night Canoe.wav
Peak level 89.4 % Extraction speed 26.4 X Copy CRC 00DBEBA1 Copy OK
Track 10
Filename E:\shinsekai yori\vol.1\FullDisc\SHINSEKAIYORI_1\OST\10 Daily Pleasure.wav
Peak level 99.8 % Extraction speed 27.1 X Copy CRC 9013B04B Copy OK
Track 11
Filename E:\shinsekai yori\vol.1\FullDisc\SHINSEKAIYORI_1\OST\11 Game Battle #1.wav
Peak level 99.8 % Extraction speed 27.6 X Copy CRC 0D26DA0F Copy OK
Track 12
Filename E:\shinsekai yori\vol.1\FullDisc\SHINSEKAIYORI_1\OST\12 Loneliness.wav
Peak level 99.8 % Extraction speed 28.4 X Copy CRC E37212C7 Copy OK
Track 13
Filename E:\shinsekai yori\vol.1\FullDisc\SHINSEKAIYORI_1\OST\13 Strange Feeling.wav
Peak level 99.8 % Extraction speed 28.8 X Copy CRC 11CEA046 Copy OK
Track 14
Filename E:\shinsekai yori\vol.1\FullDisc\SHINSEKAIYORI_1\OST\14 Time Lapse.wav
Peak level 96.2 % Extraction speed 29.5 X Copy CRC 30E51FC4 Copy OK
Track 15
Filename E:\shinsekai yori\vol.1\FullDisc\SHINSEKAIYORI_1\OST\15 Down The River.wav
Peak level 99.8 % Extraction speed 30.2 X Copy CRC 3E5F5FDC Copy OK
Track 16
Filename E:\shinsekai yori\vol.1\FullDisc\SHINSEKAIYORI_1\OST\16 Battle Mode PI #1.wav
Peak level 99.8 % Extraction speed 31.5 X Copy CRC B957A10B Copy OK
Track 17
Filename E:\shinsekai yori\vol.1\FullDisc\SHINSEKAIYORI_1\OST\17 Battle Mode PA #2.wav
Peak level 99.8 % Extraction speed 31.3 X Copy CRC 23075470 Copy OK
Track 18
Filename E:\shinsekai yori\vol.1\FullDisc\SHINSEKAIYORI_1\OST\18 Creeping Crisis.wav
Peak level 99.8 % Extraction speed 32.4 X Copy CRC E4D259CE Copy OK
Track 19
Filename E:\shinsekai yori\vol.1\FullDisc\SHINSEKAIYORI_1\OST\19 Deep Forest #2.wav
Peak level 99.8 % Extraction speed 31.9 X Copy CRC B2F82813 Copy OK
Track 20
Filename E:\shinsekai yori\vol.1\FullDisc\SHINSEKAIYORI_1\OST\20 Confession.wav
Peak level 99.8 % Extraction speed 34.0 X Copy CRC 81BF7BCE Copy OK
Track 21
Filename E:\shinsekai yori\vol.1\FullDisc\SHINSEKAIYORI_1\OST\21 Sad Song.wav
Peak level 99.8 % Extraction speed 33.4 X Copy CRC CA0EF6F0 Copy OK
Track 22
Filename E:\shinsekai yori\vol.1\FullDisc\SHINSEKAIYORI_1\OST\22 割れたリンゴ (TV edit).wav
Peak level 99.8 % Extraction speed 34.5 X Copy CRC 5634CE5C Copy OK
No errors occurred
End of status report
---- CUETools DB Plugin V2.1.3
[CTDB TOCID: OaE9HM9Qq5hlVmzB0zZrE9cL4.k-] found, Submit result: OaE9HM9Qq5hlVmzB0zZrE9cL4.k- has been confirmed[643e85f1] (1/1) Accurately ripped

Original Soundtrack 2

Original Soundtrack 2
Композитор: Комори Сигэо / Komori Shigeo (小森茂生)
Год выпуска: 2013 г.
Страна: Япония
Аудио кодек: FLAC (*.flac)
Тип рипа: tracks+.cue
Битрейт аудио: lossless
Продолжительность: 00:40:31
Треклист:
01. Kage no Denshouka Dainibu (陰の伝承歌 第二部)
02. Fight With Tuchigumo
03. Fear The Underground
04. Encounter with Minoshiromodoki
05. Strange Story
06. View Of Riverside
07. Tenderness
08. Sad Love
09. History Of Sorrow
10. History Of Despair
11. Puzzle Of Nekodamashi
12. Game Battle #2
13. Hateful Feeling
14. Deep Forest #1
15. Battle Mode PI #2
16. Battle Mode PA #1
17. Battle Adovantage #3
18. Strain Of Fight #1
19. Doutful One 2
20. Mysterious
21. Secret #1
22. Settled Life Again

Лог создания рипа

Exact Audio Copy V1.0 beta 3 from 29. August 2011
EAC extraction logfile from 20. February 2013, 18:40
Unknown Artist / Shin Sekai Yori OST2
Used drive : HL-DT-STBDDVDRW CH08LS10 Adapter: 4 ID: 0
Read mode : Burst
Read offset correction : 0Overread into Lead-In and Lead-Out : NoFill up missing offset samples with silence : YesDelete leading and trailing silent blocks : NoNull samples used in CRC calculations : YesUsed interface : Native Win32 interface for Win NT & 2000Gap handling : Not detected, thus appended to previous track
Used output format : Internal WAV RoutinesSample format : 44.100 Hz; 16 Bit; Stereo
TOC of the extracted CD
Track | Start | Length | Start sector | End sector --------------------------------------------------------- 1 | 0:00.00 | 1:38.71 | 0 | 7420 2 | 1:38.71 | 1:46.09 | 7421 | 15379 3 | 3:25.05 | 1:54.22 | 15380 | 23951 4 | 5:19.27 | 1:55.45 | 23952 | 32621 5 | 7:14.72 | 1:54.16 | 32622 | 41187 6 | 9:09.13 | 1:48.49 | 41188 | 49336 7 | 10:57.62 | 1:45.33 | 49337 | 57244 8 | 12:43.20 | 1:46.00 | 57245 | 65194 9 | 14:29.20 | 1:42.52 | 65195 | 72896 10 | 16:11.72 | 1:42.18 | 72897 | 80564 11 | 17:54.15 | 1:47.42 | 80565 | 88631 12 | 19:41.57 | 1:43.66 | 88632 | 96422 13 | 21:25.48 | 1:44.54 | 96423 | 104276 14 | 23:10.27 | 1:58.52 | 104277 | 113178 15 | 25:09.04 | 1:48.01 | 113179 | 121279 16 | 26:57.05 | 1:46.12 | 121280 | 129241 17 | 28:43.17 | 2:20.32 | 129242 | 139773 18 | 31:03.49 | 1:44.40 | 139774 | 147613 19 | 32:48.14 | 2:01.39 | 147614 | 156727 20 | 34:49.53 | 1:49.23 | 156728 | 164925 21 | 36:39.01 | 1:54.02 | 164926 | 173477 22 | 38:33.03 | 1:56.45 | 173478 | 182222
Track 1
Filename E:\shinsekai yori\vol.4\FullDisc\SHINSEKAIYORI_4\OST2\01 陰の伝承歌 第一部.wav
Timing problem 0:00:22
Peak level 99.8 % Extraction speed 7.6 X Copy CRC 4724F7DB Copy finished
Track 2
Filename E:\shinsekai yori\vol.4\FullDisc\SHINSEKAIYORI_4\OST2\02 Fight With Tuchigumo.wav
Peak level 99.8 % Extraction speed 19.3 X Copy CRC A7BDC93A Copy OK
Track 3
Filename E:\shinsekai yori\vol.4\FullDisc\SHINSEKAIYORI_4\OST2\03 Fear The Underground.wav
Peak level 99.8 % Extraction speed 20.3 X Copy CRC 2C489D3C Copy OK
Track 4
Filename E:\shinsekai yori\vol.4\FullDisc\SHINSEKAIYORI_4\OST2\04 Encounter with Minoshiromodoki.wav
Peak level 99.8 % Extraction speed 21.3 X Copy CRC 6D42D006 Copy OK
Track 5
Filename E:\shinsekai yori\vol.4\FullDisc\SHINSEKAIYORI_4\OST2\05 Strange Story.wav
Peak level 99.8 % Extraction speed 22.2 X Copy CRC FCBB7816 Copy OK
Track 6
Filename E:\shinsekai yori\vol.4\FullDisc\SHINSEKAIYORI_4\OST2\06 View Of Riverside.wav
Peak level 99.8 % Extraction speed 23.2 X Copy CRC 5F8A678E Copy OK
Track 7
Filename E:\shinsekai yori\vol.4\FullDisc\SHINSEKAIYORI_4\OST2\07 Tenderness.wav
Peak level 97.6 % Extraction speed 23.9 X Copy CRC C88780AB Copy OK
Track 8
Filename E:\shinsekai yori\vol.4\FullDisc\SHINSEKAIYORI_4\OST2\08 Sad Love.wav
Peak level 99.8 % Extraction speed 24.7 X Copy CRC CA0C2E60 Copy OK
Track 9
Filename E:\shinsekai yori\vol.4\FullDisc\SHINSEKAIYORI_4\OST2\09 History Of Sorrow.wav
Peak level 99.8 % Extraction speed 25.5 X Copy CRC CF6D4123 Copy OK
Track 10
Filename E:\shinsekai yori\vol.4\FullDisc\SHINSEKAIYORI_4\OST2\10 History Of Despair.wav
Peak level 99.8 % Extraction speed 26.3 X Copy CRC D9700AEF Copy OK
Track 11
Filename E:\shinsekai yori\vol.4\FullDisc\SHINSEKAIYORI_4\OST2\11 Puzzle Of Nekodamashi.wav
Peak level 99.8 % Extraction speed 26.9 X Copy CRC 1B6D68D5 Copy OK
Track 12
Filename E:\shinsekai yori\vol.4\FullDisc\SHINSEKAIYORI_4\OST2\12 Game Battle #2.wav
Peak level 99.8 % Extraction speed 27.6 X Copy CRC D84C9C86 Copy OK
Track 13
Filename E:\shinsekai yori\vol.4\FullDisc\SHINSEKAIYORI_4\OST2\13 Hateful Feeling.wav
Peak level 99.8 % Extraction speed 27.3 X Copy CRC 4F730809 Copy OK
Track 14
Filename E:\shinsekai yori\vol.4\FullDisc\SHINSEKAIYORI_4\OST2\14 Deep Forest #1.wav
Peak level 99.8 % Extraction speed 29.2 X Copy CRC 035F103B Copy OK
Track 15
Filename E:\shinsekai yori\vol.4\FullDisc\SHINSEKAIYORI_4\OST2\15 Battle Mode P1 #2.wav
Peak level 99.8 % Extraction speed 29.7 X Copy CRC 84E8D3CE Copy OK
Track 16
Filename E:\shinsekai yori\vol.4\FullDisc\SHINSEKAIYORI_4\OST2\16 Battle Mode PA #1.wav
Peak level 99.8 % Extraction speed 30.3 X Copy CRC DEB6C047 Copy OK
Track 17
Filename E:\shinsekai yori\vol.4\FullDisc\SHINSEKAIYORI_4\OST2\17 Battle Adovantage #3.wav
Peak level 99.8 % Extraction speed 31.6 X Copy CRC 321A0FA3 Copy OK
Track 18
Filename E:\shinsekai yori\vol.4\FullDisc\SHINSEKAIYORI_4\OST2\18 Strain Of Fight.wav
Peak level 99.8 % Extraction speed 31.7 X Copy CRC D9004C42 Copy OK
Track 19
Filename E:\shinsekai yori\vol.4\FullDisc\SHINSEKAIYORI_4\OST2\19 Doutful One.wav
Peak level 99.8 % Extraction speed 32.4 X Copy CRC 6080965C Copy OK
Track 20
Filename E:\shinsekai yori\vol.4\FullDisc\SHINSEKAIYORI_4\OST2\20 Mysterious.wav
Peak level 99.8 % Extraction speed 33.0 X Copy CRC CC0B61E2 Copy OK
Track 21
Filename E:\shinsekai yori\vol.4\FullDisc\SHINSEKAIYORI_4\OST2\21 Secret #1.wav
Peak level 99.8 % Extraction speed 33.6 X Copy CRC C7A40D79 Copy OK
Track 22
Filename E:\shinsekai yori\vol.4\FullDisc\SHINSEKAIYORI_4\OST2\22 Settled Life Again.wav
Peak level 99.8 % Extraction speed 34.2 X Copy CRC 0CFC04B7 Copy OK
No errors occurred
End of status report
---- CUETools DB Plugin V2.1.3
[CTDB TOCID: k6fJ.ddrPrenVHoD3wAAU4R.zy4-] disk not present in database, Submit result: insufficient quality

Original Soundtrack 3

Original Soundtrack 3
Композитор: Комори Сигэо / Komori Shigeo (小森茂生)
Год выпуска: 2013 г.
Страна: Япония
Аудио кодек: FLAC (*.flac)
Тип рипа: tracks+.cue
Битрейт аудио: lossless
Продолжительность: 00:47:15
Треклист:
01. Kage no Denshouka Daisanbu (陰の伝承歌 第三部)
02. Calm World
03. Gouma
04. Place Of Bakenezumi
05. Tokyo Underground
06. Anger
07. Battle Advantage #1
08. Relief
09. Peace Of Mind
10. Memory Of Shun
11. Goes To The School
12. Original Sin (Piano Mix)
13. Battle Advantage #2
14. Strain Of Fight #2
15. Game Battle #2
16. Last Letter
17. Goodbye To Childhood
18. Secret #2
19. Sad Separation
20. Original Sin (Strings Mix)
21. Hope For The Future
22. Yuki ni Saku Hana (雪に咲く花) (TV edit)
23. Kage no Denshouka Daiichibu (陰の伝承歌 第一部)
24. Kage no Denshouka Dainibu (陰の伝承歌 第二部)
25. Kage no Denshouka Daisanbu (陰の伝承歌 第三部)

Лог создания рипа

Exact Audio Copy V1.0 beta 3 from 29. August 2011
EAC extraction logfile from 27. May 2013, 17:44
Various Artists / 新世界より オリジナルサウンドトラック3
Used drive : HL-DT-STBDDVDRW CH08LS10 Adapter: 4 ID: 0
Read mode : Burst
Read offset correction : 0Overread into Lead-In and Lead-Out : NoFill up missing offset samples with silence : YesDelete leading and trailing silent blocks : NoNull samples used in CRC calculations : YesUsed interface : Native Win32 interface for Win NT & 2000Gap handling : Not detected, thus appended to previous track
Used output format : Internal WAV RoutinesSample format : 44.100 Hz; 16 Bit; Stereo
TOC of the extracted CD
Track | Start | Length | Start sector | End sector --------------------------------------------------------- 1 | 0:00.00 | 2:09.39 | 0 | 9713 2 | 2:09.39 | 2:02.63 | 9714 | 18926 3 | 4:12.27 | 1:53.45 | 18927 | 27446 4 | 6:05.72 | 1:53.38 | 27447 | 35959 5 | 7:59.35 | 2:04.60 | 35960 | 45319 6 | 10:04.20 | 1:39.62 | 45320 | 52806 7 | 11:44.07 | 1:54.09 | 52807 | 61365 8 | 13:38.16 | 1:48.11 | 61366 | 69476 9 | 15:26.27 | 1:50.09 | 69477 | 77735 10 | 17:16.36 | 1:41.35 | 77736 | 85345 11 | 18:57.71 | 1:55.24 | 85346 | 93994 12 | 20:53.20 | 2:11.35 | 93995 | 103854 13 | 23:04.55 | 1:42.31 | 103855 | 111535 14 | 24:47.11 | 1:41.22 | 111536 | 119132 15 | 26:28.33 | 1:51.22 | 119133 | 127479 16 | 28:19.55 | 1:52.29 | 127480 | 135908 17 | 30:12.09 | 1:59.26 | 135909 | 144859 18 | 32:11.35 | 1:46.54 | 144860 | 152863 19 | 33:58.14 | 2:02.58 | 152864 | 162071 20 | 36:00.72 | 2:12.27 | 162072 | 171998 21 | 38:13.24 | 2:05.71 | 171999 | 181444 22 | 40:19.20 | 1:33.70 | 181445 | 188489 23 | 41:53.15 | 1:38.38 | 188490 | 195877 24 | 43:31.53 | 1:36.12 | 195878 | 203089 25 | 45:07.65 | 2:08.29 | 203090 | 212718
Track 1
Filename E:\shinsekai yori\vol7\FullDisc\SHINSEKAIYORI_7\Bonus audio cd.3\01 陰の伝承歌 第三部.wav
Timing problem 0:00:22
Peak level 100.0 % Extraction speed 8.8 X Copy CRC 87F94237 Copy finished
Track 2
Filename E:\shinsekai yori\vol7\FullDisc\SHINSEKAIYORI_7\Bonus audio cd.3\02 Calm World.wav
Peak level 84.2 % Extraction speed 19.5 X Copy CRC 50B5B417 Copy OK
Track 3
Filename E:\shinsekai yori\vol7\FullDisc\SHINSEKAIYORI_7\Bonus audio cd.3\03 Gouma.wav
Peak level 99.6 % Extraction speed 20.6 X Copy CRC 57BD5F16 Copy OK
Track 4
Filename E:\shinsekai yori\vol7\FullDisc\SHINSEKAIYORI_7\Bonus audio cd.3\04 Place Of Bakenezumi.wav
Peak level 100.0 % Extraction speed 21.5 X Copy CRC BDE6B75A Copy OK
Track 5
Filename E:\shinsekai yori\vol7\FullDisc\SHINSEKAIYORI_7\Bonus audio cd.3\05 Tokyo Underground.wav
Peak level 96.2 % Extraction speed 22.5 X Copy CRC 8ED01B94 Copy OK
Track 6
Filename E:\shinsekai yori\vol7\FullDisc\SHINSEKAIYORI_7\Bonus audio cd.3\06 Anger.wav
Peak level 100.0 % Extraction speed 23.4 X Copy CRC 54D8956C Copy OK
Track 7
Filename E:\shinsekai yori\vol7\FullDisc\SHINSEKAIYORI_7\Bonus audio cd.3\07 Battle Advantage #1.wav
Peak level 100.0 % Extraction speed 24.2 X Copy CRC C8330C81 Copy OK
Track 8
Filename E:\shinsekai yori\vol7\FullDisc\SHINSEKAIYORI_7\Bonus audio cd.3\08 Relief.wav
Peak level 79.2 % Extraction speed 25.0 X Copy CRC 87B2B2C3 Copy OK
Track 9
Filename E:\shinsekai yori\vol7\FullDisc\SHINSEKAIYORI_7\Bonus audio cd.3\09 Peace Of Mind.wav
Peak level 97.9 % Extraction speed 25.7 X Copy CRC E9D5D8BD Copy OK
Track 10
Filename E:\shinsekai yori\vol7\FullDisc\SHINSEKAIYORI_7\Bonus audio cd.3\10 Memory Of Shun.wav
Peak level 98.0 % Extraction speed 26.5 X Copy CRC DDA854FB Copy OK
Track 11
Filename E:\shinsekai yori\vol7\FullDisc\SHINSEKAIYORI_7\Bonus audio cd.3\11 Goes To The School.wav
Peak level 100.0 % Extraction speed 27.2 X Copy CRC 99F6AA3E Copy OK
Track 12
Filename E:\shinsekai yori\vol7\FullDisc\SHINSEKAIYORI_7\Bonus audio cd.3\12 Original Sin (Piano Mix).wav
Peak level 98.1 % Extraction speed 28.0 X Copy CRC C094FD2A Copy OK
Track 13
Filename E:\shinsekai yori\vol7\FullDisc\SHINSEKAIYORI_7\Bonus audio cd.3\13 Battle Advantage #2.wav
Peak level 100.0 % Extraction speed 28.7 X Copy CRC A25BEF4C Copy OK
Track 14
Filename E:\shinsekai yori\vol7\FullDisc\SHINSEKAIYORI_7\Bonus audio cd.3\14 Strain Of Fight #2.wav
Peak level 100.0 % Extraction speed 29.3 X Copy CRC C5E012DB Copy OK
Track 15
Filename E:\shinsekai yori\vol7\FullDisc\SHINSEKAIYORI_7\Bonus audio cd.3\15 Game Battle #2.wav
Peak level 100.0 % Extraction speed 29.9 X Copy CRC 2D1E4667 Copy OK
Track 16
Filename E:\shinsekai yori\vol7\FullDisc\SHINSEKAIYORI_7\Bonus audio cd.3\16 Last Letter.wav
Peak level 89.5 % Extraction speed 30.6 X Copy CRC 8E024487 Copy OK
Track 17
Filename E:\shinsekai yori\vol7\FullDisc\SHINSEKAIYORI_7\Bonus audio cd.3\17 Goodbye To Childhood.wav
Peak level 85.3 % Extraction speed 31.3 X Copy CRC D0861C6D Copy OK
Track 18
Filename E:\shinsekai yori\vol7\FullDisc\SHINSEKAIYORI_7\Bonus audio cd.3\18 Secret #2.wav
Peak level 100.0 % Extraction speed 31.9 X Copy CRC 660E9DD8 Copy OK
Track 19
Filename E:\shinsekai yori\vol7\FullDisc\SHINSEKAIYORI_7\Bonus audio cd.3\19 Sad Separation.wav
Peak level 99.2 % Extraction speed 32.6 X Copy CRC B1E3AC21 Copy OK
Track 20
Filename E:\shinsekai yori\vol7\FullDisc\SHINSEKAIYORI_7\Bonus audio cd.3\20 Original Sin (Strings Mix).wav
Peak level 99.6 % Extraction speed 33.2 X Copy CRC 80A9233C Copy OK
Track 21
Filename E:\shinsekai yori\vol7\FullDisc\SHINSEKAIYORI_7\Bonus audio cd.3\21 Hope For The Future.wav
Peak level 98.1 % Extraction speed 33.9 X Copy CRC 20ADB201 Copy OK
Track 22
Filename E:\shinsekai yori\vol7\FullDisc\SHINSEKAIYORI_7\Bonus audio cd.3\22 雪に咲く花 (TV edit).wav
Peak level 100.0 % Extraction speed 34.5 X Copy CRC 1077421C Copy OK
Track 23
Filename E:\shinsekai yori\vol7\FullDisc\SHINSEKAIYORI_7\Bonus audio cd.3\23 陰の伝承歌 第一部.wav
Peak level 99.6 % Extraction speed 35.1 X Copy CRC E2FA30AE Copy OK
Track 24
Filename E:\shinsekai yori\vol7\FullDisc\SHINSEKAIYORI_7\Bonus audio cd.3\24 陰の伝承歌 第二部.wav
Peak level 98.5 % Extraction speed 35.5 X Copy CRC 6AA799AF Copy OK
Track 25
Filename E:\shinsekai yori\vol7\FullDisc\SHINSEKAIYORI_7\Bonus audio cd.3\25 陰の伝承歌 第三部.wav
Peak level 100.0 % Extraction speed 36.1 X Copy CRC 10BE9F2F Copy OK
No errors occurred
End of status report
---- CUETools DB Plugin V2.1.3
[CTDB TOCID: bRL9GhoLIkwdOVQ_DSu76UTFhas-] found, Submit result: bRL9GhoLIkwdOVQ_DSu76UTFhas- has been confirmed[65564147] (1/1) Accurately ripped
Other forum [Profile] [PM]
Display posts from previous:    
Reply to topic

The time now is: Today 00:30

All times are GMT + 3 Hours



You cannot post new topics in this forum
You cannot reply to topics in this forum
You cannot edit your posts in this forum
You cannot delete your posts in this forum
You cannot vote in polls in this forum
You cannot attach files in this forum
You cannot download files in this forum