Today is a free download without charge Download

Страх и ненависть в Лас-Вегасе / Fear and Loathing in Las Vegas (Терри Гиллиам) [1998 г., драма, комедия, BDRip720p]

Reply to topic
 
Author
Message

Delia ®

Gender:

Longevity: 9 years 6 months

Posts: 1821

Торрент-статистика

Post 16-Sep-2011 08:50

[Quote]

Страх и ненависть в Лас-ВегасеFear and Loathing in Las Vegas Год выпуска: 1998
Страна: США
Жанр: драма, комедия
Продолжительность: 01:55:28
Перевод: Профессиональный (многоголосый, закадровый)
Режиссер: Терри Гиллиам
Продюссер: Патрик Кассаветти, Лайла Набулси, Стефен Немет
Сценарий: Терри Гиллиам, Тони Гризони, Тод Дейвис
Бюджет: $18 500 000
Премьера в мире: 15 мая 1998
В ролях: Джонни Депп, Бенисио Дель Торо, Тоби Магуайр, Эллен Баркин, Гэри Бьюзи, Кристина Риччи, Марк Хэрмон, Кэмерон Диаз, Кэтрин Хелмонд, Майкл Джитер
Описание: Два приятеля едут в Лас-Вегас. Одного из них зовут Рауль Дьюк, он спортивный обозреватель, и в Вегас едет чтобы осветить знаменитую «Минт 400». Второго зовут Доктор Гонзо. Или что-то вроде того. А еще Доктор Гонзо — адвокат, но какая разница? Да и вокруг творится нечто невообразимое. Родную Неваду не узнать. Только специальные препараты могут спасти от всех этих тварей. Нормальным парням вроде наших героев временами даже как-то неуютно в этом хаосе...
Качество: BDRip720p
Формат: MKV
Видео кодек: H.264
Аудио кодек: AC3
Видео: English, 4835 Кбит/сек, 1280*544 (2,35:1), в 23,976 кадр/сек, AVC ([email protected])
Аудио:Russian, 448 Кбит/сек, 48,0 КГц, 16 бит, 6 канала(ов), AC-3(Многоголосый, West)
Дополнительно отдельными файлами :
Russian (AC3, 5.1, 448 kbps / 48 kHz) (Многоголосый, Tycoon)
Russian (AC3, 5.1, 448 kbps / 48 kHz) (Авторский, Казаков №1)
Russian (448 Кбит/сек, 48,0 КГц, 16 бит, 6 канала(ов), AC-3 ,Многоголосый, Гланц)
Russian (AC3, 5.1, 448 kbps / 48 kHz) (Авторский, Живов)
Russian (AC3, 5.1, 448 kbps / 48 kHz) (Авторский, Гаврилов)
Russian (AC3, 5.1, 448 kbps / 48 kHz) (Авторский, Казаков №2)
English,(320 Кбит/сек, 48,0 КГц, 16 бит, 6 канала(ов), AC-3)
Субтитры:Russian , English - VobSub

Знаете ли Вы что....

Код:
1.Фильм снят по книге Хантера С. Томпсона «Страх и отвращение в Лас-Вегасе: Дикое путешествие в Сердце Американской Мечты». Действие и фильма и книги происходит в 1971 году и основой для написания книги послужили реальные события из жизни Хантера. Прообразом для Рауля Дюка является сам Хантер Томпсон.
2.Джонни Депп и Хантер были знакомы до того, как Депп принял предложение сыграть Рауля Дюка в фильме по его книге.
3.Режиссер Терри Гиллиам был приглашен в проект после того, как режиссер Алекс Кокс отказался от съемок после встречи с Томпсоном.
4.Некоторое время Депп жил в доме Хантера и старательно «впитывал» его манеру поведения.
5.На съемках фильма были использованы некоторые из личных вещей Хантера, сохранившиеся со времен написания книги.
6.На съемках не употреблялись наркотики, Джонни Депп вместо кокаина нюхал молочный порошок, по его словам «нюхать кокаин было бы гуманнее».
7.Хантер собственноручно выбрил на голове Деппа «ту самую» лысину.
8.Бенисио Дель Торо тоже пришлось пойти на жертву ради искусства - потолстеть для фильма на пару десятков килограммов.
9.В фильме есть несколько очень удачных камео, в одной из сцен можно лицезреть Томпсона собственной персоной.
10.Джонни Депп потратил несколько месяцев, чтобы избавиться от походки и манер Хантера Томсона после окончания съемок фильма.
11.В сцене, где Дюк находится под действием адренохрома, он шепчет «el llama es un quadrupedo». Это цитата из телесериала «Летающий цирк Монти Пайтона», в создании которого когда-то участвовал Гиллиам.

MI:

Код:
Общее
Уникальный идентификатор         : 244012085558721446264505565902097769714 (0xB79304AB2DF50111A7FAD6043FF664F2)
Полное имя                       : E:\торрент\Ctrah i nenavict v Las -Vegace.BDRip720p\Ctrah i nenavict v Las -Vegace.BDRip720p.mkv
Формат                           : Matroska
Размер файла                     : 4,37 Гбайт
Продолжительность                : 1 ч. 58 м.
Общий поток                      : 5282 Кбит/сек
Дата кодирования                 : UTC 2011-09-16 03:29:58
Программа кодирования            : mkvmerge v4.9.1 ('Ich will') built on Jul 11 2011 23:53:15
Библиотека кодирования           : libebml v1.2.1 + libmatroska v1.1.1
Видео
Идентификатор                    : 1
Формат                           : AVC
Формат/Информация                : Advanced Video Codec
Профиль формата                  : [email protected]
Параметр CABAC формата           : Да
Параметр ReFrames формата        : 10 кадры
Идентификатор кодека             : V_MPEG4/ISO/AVC
Продолжительность                : 1 ч. 58 м.
Битрейт                          : 4835 Кбит/сек
Ширина                           : 1280 пикс.
Высота                           : 544 пикс.
Соотношение сторон               : 2,35:1
Частота кадров                   : 23,976 кадр/сек
Цветовое пространство            : YUV
Подвыборка цветности             : 4:2:0
Битовая глубина                  : 8 бит
Тип развёртки                    : Прогрессивная
Бит/(Пиксели*Кадры)              : 0.290
Размер потока                    : 3,91 Гбайт (90%)
Библиотека кодирования           : x264 core 116 r2074 2641b9e
Настройки программы              : cabac=1 / ref=10 / deblock=1:-3:-3 / analyse=0x3:0x133 / me=esa / subme=9 / psy=1 / psy_rd=1.00:0.15 / mixed_ref=1 / me_range=32 / chroma_me=1 / trellis=2 / 8x8dct=1 / cqm=0 / deadzone=21,11 / fast_pskip=0 / chroma_qp_offset=-3 / threads=6 / sliced_threads=0 / nr=0 / decimate=1 / interlaced=0 / bluray_compat=0 / constrained_intra=0 / bframes=6 / b_pyramid=2 / b_adapt=2 / b_bias=0 / direct=3 / weightb=1 / open_gop=0 / weightp=2 / keyint=250 / keyint_min=23 / scenecut=40 / intra_refresh=0 / rc=2pass / mbtree=0 / bitrate=4835 / ratetol=1.0 / qcomp=0.80 / qpmin=10 / qpmax=51 / qpstep=4 / cplxblur=20.0 / qblur=0.5 / ip_ratio=1.40 / pb_ratio=1.30 / aq=1:1.00
Язык                             : English
Аудио
Идентификатор                    : 2
Формат                           : AC-3
Формат/Информация                : Audio Coding 3
Расширение режима                : CM (complete main)
Идентификатор кодека             : A_AC3
Продолжительность                : 1 ч. 58 м.
Вид битрейта                     : Постоянный
Битрейт                          : 448 Кбит/сек
Канал(ы)                         : 6 канала(ов)
Расположение каналов             : Front: L C R, Side: L R, LFE
Частота                          : 48,0 КГц
Битовая глубина                  : 16 бит
Метод сжатия                     : С потерями
Задержка видео                   : 13 мс.
Размер потока                    : 380 Мбайт (8%)
Меню
00:00:00.000                     : en:00:00:00.000
00:05:57.607                     : en:00:05:57.607
00:12:24.911                     : en:00:12:24.911
00:18:02.123                     : en:00:18:02.123
00:23:00.879                     : en:00:23:00.879
00:30:54.352                     : en:00:30:54.352
00:37:02.387                     : en:00:37:02.387
00:42:14.073                     : en:00:42:14.073
00:46:11.769                     : en:00:46:11.769
00:51:07.314                     : en:00:51:07.314
00:54:36.690                     : en:00:54:36.690
01:00:48.812                     : en:01:00:48.812
01:05:30.635                     : en:01:05:30.635
01:10:15.670                     : en:01:10:15.670
01:14:27.838                     : en:01:14:27.838
01:19:21.090                     : en:01:19:21.090

Скриншоты

              

_________________
Человек – это канат, натянутый между животным и сверхчеловеком, – канат над пропастью.
В человеке ценно то, что он мост, а не цель. Фридрих Ницше


Last edited by Delia on 2011-09-16 11:07; edited 1 time in total
Other forum [Profile] [PM]
Display posts from previous:    
Reply to topic

The time now is: Today 08:25

All times are GMT + 3 Hours



You cannot post new topics in this forum
You cannot reply to topics in this forum
You cannot edit your posts in this forum
You cannot delete your posts in this forum
You cannot vote in polls in this forum
You cannot attach files in this forum
You cannot download files in this forum