Today is a free download without charge Download

Queens Of The Stone Age - La musicale Live de l'ete 2013 (CANAL+, 2013 aug22) [2013, Alternative rock/Hard rock/Psychedelic rock, HDTV 1080i]

Reply to topic
 
Author
Message

Omen ®

Longevity: 8 years 4 months

Posts: 181087

Торрент-статистика

Post 27-Aug-2013 01:00

[Quote]

Queens Of The Stone Age - La musicale Live de l'ete 2013 (CANAL+, 2013 aug22)
-

-
Keep Your Eyes Peeled
I Sat By The Ocean
The Vampyre Of Time And Memory
If I Had A Tail
My God Is The Sun
Kalopsia
Smooth Sailing
I Appear Missing
Like Clockwork

+
Interview

-
Жанр: Alternative rock/Hard rock/Psychedelic rock
Продолжительность: 01:05:23
Год выпуска: 2013
Качество: HDTV 1080i
Контейнер: TS
Видео кодек: H.264
Аудио кодек: AC3
Видео: Mpeg4 AVC, 1920x1080, 9365 kbps, 25 fps
Аудио: AC3, 192 kbps, 48 kHz, stereo
Аудио 2: AC3, 192 kbps, 48 kHz, stereo
Аудио 3: AC3, 192 kbps, 48 kHz, stereo

Отчёт MediaInfo / BDInfo

GeneralID : 1 (0x1)Complete name : D:\Downloads\Queens Of The Stone Age - La musicale Live de l'ete 2013.tsFormat : MPEG-TSFile size : 4.78 GiBDuration : 1h 5mnOverall bit rate mode : VariableOverall bit rate : 10.5 Mbps
VideoID : 160 (0xA0)Menu ID : 1 (0x1)Format : AVCFormat/Info : Advanced Video CodecFormat profile : [email protected] settings, CABAC : YesFormat settings, ReFrames : 4 framesCodec ID : 27Duration : 1h 5mnBit rate : 9 363 KbpsWidth : 1 920 pixelsHeight : 1 080 pixelsDisplay aspect ratio : 16:9Frame rate : 25.000 fpsColor space : YUVChroma subsampling : 4:2:0Bit depth : 8 bitsScan type : MBAFFBits/(Pixel*Frame) : 0.181Stream size : 4.28 GiB (89%)Color primaries : BT.709Transfer characteristics : BT.709Matrix coefficients : BT.709
Audio #1ID : 81 (0x51)Menu ID : 1 (0x1)Format : AC-3Format/Info : Audio Coding 3Mode extension : CM (complete main)Format settings, Endianness : BigCodec ID : 6Duration : 1h 5mnBit rate mode : ConstantBit rate : 192 KbpsChannel(s) : 2 channelsChannel positions : Front: L RSampling rate : 48.0 KHzBit depth : 16 bitsCompression mode : LossyStream size : 89.8 MiB (2%)Language : qad
Audio #2ID : 82 (0x52)Menu ID : 1 (0x1)Format : AC-3Format/Info : Audio Coding 3Mode extension : CM (complete main)Format settings, Endianness : BigCodec ID : 6Duration : 1h 5mnBit rate mode : ConstantBit rate : 192 KbpsChannel(s) : 2 channelsChannel positions : Front: L RSampling rate : 48.0 KHzBit depth : 16 bitsCompression mode : LossyStream size : 89.8 MiB (2%)Language : French
Audio #3ID : 83 (0x53)Menu ID : 1 (0x1)Format : AC-3Format/Info : Audio Coding 3Mode extension : CM (complete main)Format settings, Endianness : BigCodec ID : 6Duration : 1h 5mnBit rate mode : ConstantBit rate : 192 KbpsChannel(s) : 2 channelsChannel positions : Front: L RSampling rate : 48.0 KHzBit depth : 16 bitsCompression mode : LossyStream size : 89.8 MiB (2%)Language : English
TextID : 33 (0x21)Menu ID : 1 (0x1)Format : DVB SubtitleCodec ID : 6Delay relative to video : 14s 257msLanguage : French / French

Скриншоты

Other forum [Profile] [PM]
Display posts from previous:    
Reply to topic

The time now is: Today 01:49

All times are GMT + 3 Hours



You cannot post new topics in this forum
You cannot reply to topics in this forum
You cannot edit your posts in this forum
You cannot delete your posts in this forum
You cannot vote in polls in this forum
You cannot attach files in this forum
You cannot download files in this forum