Today is a free download without charge Download

Шерлок Холмс и Доктор Ватсон. Убийство Лорда Уотербрука (Александр Бубнов) [2005 г., Короткометражка, Пародия, Рисованная анимация, DVDRip]

Reply to topic
 
Author
Message

Koralina ®

Longevity: 9 years 2 months

Posts: 994

Location: Lithuania

Торрент-статистика

Post 26-Aug-2013 22:49

[Quote]

Шерлок Холмс и Доктор Ватсон. Убийство лорда Уотербрука Год выхода: 2005
Режиссер: Александр Бубнов
Страна производства: Россия
Продолжительность: 00:18:32
Роли озвучивали: Алексей Колган, Людмила Ильина
Сценарист: Александр Бубнов
Художники: Ирина Ковтун, Зоя Трофимова, Александр Бубнов
Аниматоры: Александр Бубнов, М. Лаптев, А. Лавринишин, Ю. Борисенко, Евгений Алехин
Композиторы: Валентин Васенков, Е. Гальперин
Звукооператор: Владимир Голоунин
Сценарий: Александр Бубнов
Жанр: мультфильм, короткометражка
Описание: Шерлок Холмс и доктор Ватсон расследуют убийство лорда Уотербрука. В ходе следствия возникают все новые и новые версии…
Рейтинг IMDB:
Рейтинг Kinopoisk:
Исходник DVD5, PAL 4:3 (720x576) VBR
Релиз группа:

Качество: DVDRip
Формат: AVI
Видео кодек: Xvid
Аудио кодек: AC3 2 ch
Видео: 688x512 (1.34:1), 25 fps, XviD build 65 ~1949 kbps avg, 0.22 bit/pixel
Аудио: 48 kHz, AC3 Dolby Digital, 2/0 (L,R) ch, ~192 kbps

Медиаинфо

Код:
Format                                   : AVI
Format/Info                              : Audio Video Interleave
File size                                : 285 MiB
Duration                                 : 18mn 32s
Overall bit rate                         : 2 151 Kbps
Director                                 : CrimeanFox
Writing application                      : VirtualDubMod 1.5.10.3 | www.virtualdub-fr.org || (build 2550/release)
Writing library                          : VirtualDub build 32706/release
Copyright                                : RG.Vanila.films
Video
ID                                       : 0
Format                                   : MPEG-4 Visual
Format profile                           : Advanced [email protected]
Format settings, BVOP                    : 2
Format settings, QPel                    : No
Format settings, GMC                     : No warppoints
Format settings, Matrix                  : Default (MPEG)
Codec ID                                 : XVID
Codec ID/Hint                            : XviD
Duration                                 : 18mn 32s
Bit rate                                 : 1 950 Kbps
Width                                    : 688 pixels
Height                                   : 512 pixels
Display aspect ratio                     : 4:3
Frame rate                               : 25.000 fps
Color space                              : YUV
Chroma subsampling                       : 4:2:0
Bit depth                                : 8 bits
Scan type                                : Progressive
Compression mode                         : Lossy
Bits/(Pixel*Frame)                       : 0.221
Stream size                              : 259 MiB (91%)
Writing library                          : XviD 65
Audio
ID                                       : 1
Format                                   : AC-3
Format/Info                              : Audio Coding 3
Mode extension                           : CM (complete main)
Format settings, Endianness              : Big
Codec ID                                 : 2000
Duration                                 : 18mn 32s
Bit rate mode                            : Constant
Bit rate                                 : 192 Kbps
Channel(s)                               : 2 channels
Channel positions                        : Front: L R
Sampling rate                            : 48.0 KHz
Bit depth                                : 16 bits
Compression mode                         : Lossy
Stream size                              : 25.5 MiB (9%)
Alignment                                : Split accross interleaves
Interleave, duration                     : 40 ms (1.00 video frame)
Interleave, preload duration             : 500 ms

Скриншоты

                   

_________________
Other forum [Profile] [PM]
Display posts from previous:    
Reply to topic

The time now is: Today 08:40

All times are GMT + 3 Hours



You cannot post new topics in this forum
You cannot reply to topics in this forum
You cannot edit your posts in this forum
You cannot delete your posts in this forum
You cannot vote in polls in this forum
You cannot attach files in this forum
You cannot download files in this forum