Today is a free download without charge Download

Aimee Mann - Infinity Hall Live [2012, Rock, Folk, HDTV 1080i]

Reply to topic
 
Author
Message

Omen ®

Longevity: 8 years 3 months

Posts: 181087

Торрент-статистика

Post 26-Aug-2013 12:50

[Quote]

Aimee Mann
- Infinity Hall Live -



Жанр: Rock, Folk
Продолжительность: 00:56:28
Год выпуска: 2012-01-30
Эйми Манн (англ. Aimee Mann; род. 8 сентября 1960) — американская кантри-рок-исполнительница, участница The Young Snakes и 'Til Tuesday.

Треклист

01. intro/interview/soundcheck/backstage
02. High On Sunday (solo acoustic)
03. You Could Make A Killing
04. Looking For Nothing
05. banter
06. Going Through The Motions
07. Freeway
08. banter
09. Gumby
10. banter
11. Labrador
12. Slip And Roll
13. Soon Enough
14. Save Me
15. Wise Up
16. Red Vines (solo acoustic)
17. Deathly
Качество: HDTV 1080i
Контейнер: TS
Видео кодек: MPEG2
Аудио кодек: AC3
Видео: MPEG2 Video 1920x1080 29.97fps 65000kbps 13.3 Mbps
Аудио: Dolby AC3 48000Hz 6ch 384kbps

Отчёт MediaInfo / BDInfo

GeneralID : 1 (0x1)Complete name : E:\Aimee Mann - Infinity Hall Live.tsFormat : MPEG-TSFile size : 5.70 GiBDuration : 56mn 28sOverall bit rate mode : VariableOverall bit rate : 14.4 Mbps
VideoID : 1984 (0x7C0)Menu ID : 1 (0x1)Format : MPEG VideoFormat version : Version 2Format profile : [email protected] settings, BVOP : NoFormat settings, Matrix : CustomFormat settings, GOP : VariableCodec ID : 2Duration : 56mn 28sBit rate mode : VariableBit rate : 13.3 MbpsMaximum bit rate : 65.0 MbpsWidth : 1 920 pixelsHeight : 1 080 pixelsDisplay aspect ratio : 16:9Frame rate : 29.970 fpsColor space : YUVChroma subsampling : 4:2:0Bit depth : 8 bitsScan type : InterlacedScan order : Top Field FirstCompression mode : LossyBits/(Pixel*Frame) : 0.215Time code of first frame : 00:00:00;00Time code source : Group of pictures headerStream size : 5.26 GiB (92%)
AudioID : 1985 (0x7C1)Menu ID : 1 (0x1)Format : AC-3Format/Info : Audio Coding 3Mode extension : CM (complete main)Format settings, Endianness : BigCodec ID : 129Duration : 56mn 28sBit rate mode : ConstantBit rate : 384 KbpsChannel(s) : 6 channelsChannel positions : Front: L C R, Side: L R, LFESampling rate : 48.0 KHzBit depth : 16 bitsCompression mode : LossyDelay relative to video : 15msStream size : 155 MiB (3%)Language : English
Other forum [Profile] [PM]
Display posts from previous:    
Reply to topic

The time now is: Today 17:04

All times are GMT + 3 Hours



You cannot post new topics in this forum
You cannot reply to topics in this forum
You cannot edit your posts in this forum
You cannot delete your posts in this forum
You cannot vote in polls in this forum
You cannot attach files in this forum
You cannot download files in this forum