Today is a free download without charge Download

Рокки: Антология / Rocky: The Undisputed Collection (Джон Г. Эвилдсен /John G. Avildsen, Сильвестр Сталлоне / Sylvester Stallone) [1976, 1979, 1982, 1985, 1990, 2006, США, боевик, драма, спорт, BDRemux 1080p] MVO + AVO + original eng + Sub (rus, eng)

Reply to topic
 
Author
Message

Delia ®

Gender:

Longevity: 9 years 7 months

Posts: 1821

Торрент-статистика

Post 15-Sep-2011 15:22

[Quote]

Рокки: Антология -Рокки / Rocky-«His whole life was a million-to-one shot.»
Страна: США
Жанр: боевик, драма, спорт
Год выпуска: 1976
Продолжительность: 01:59:35-Перевод: Профессиональный (многоголосый закадровый) х4
Перевод: Авторский (одноголосый закадровый) х4
Cубтитры: Russian (Forced), Russian (Киномания), Russian (R5), Russian, English (SDH)
Оригинальная аудиодорожка: English-Режиссер: Джон Г. Эвилдсен / John G. Avildsen, Сильвестр Сталлоне / Sylvester Stallone
В ролях: Сильвестр Сталлоне, Талия Шайр, Берт Янг, Карл Уэверз, Бургесс Мередит, Тэйер Дэвид, Джо Спинелл, Аль Сильвани, Джордж Меммоли, Jodi Letizia, Диана Льюис, George O'Hanlon, Ларри Кэрролл, Стэн Шоу, Дон Шерман, Билли Сэндс, Педро Ловелл-Описание: Кто такой Рокки Бальбоа? — это человек легенда, застенчивый, но чрезвычайно упрямый и талантливый боксер, который не щадил себя и поднялся с самого дна на вершину славы.
Своим обаянием он завоевывает сердца миллионов, а кровавыми поединками шокирует даже профессионалов. Он изматывает себя изнурительными тренировками и мечтает о поясе чемпиона мира. Как бультерьер он набрасывается на своих противников, какими бы опасными они не были.
Ему наплевать, что его лицо превращается в кровавое месиво, он всегда идет до самого конца, и кажется, что он скорее умрет, чем покажет свою слабость.-Качество: BDRemux 1080p
Контейнер: BDAV
Видео: MPEG-2, 1920x1080, 23,976 fps, 18324 kbps
Аудио#1: Russian: 48 kHz/24-bit, DTS-HD MA 5.1, 3516 kbps avg (DTS Core: 5.1 / 48 kHz / 1509 kbps) |Многоголосый закадровый, Киномания|
Аудио#2: Russian: 48 kHz, AC3, 2/0 (L,R) ch, 192.00 kbps avg |Многоголосый закадровый, R5 (20th Century Fox)|
Аудио#3: Russian: 48 kHz, AC3, 3/2 (L,C,R,l,r) + LFE ch, 384.00 kbps avg |Многоголосый закадровый, DDV|
Аудио#4: Russian: 48 kHz, AC3, 2/0 (L,R) ch, 192.00 kbps avg |Многоголосый закадровый, Варус Видео (VHS)|
Аудио#5: Ukrainian: 48 kHz, AC3, 2/0 (L,R) ch, 256.00 kbps avg |Многоголосый закадровый, Так Треба Продакшн (телеканал Інтер)|
Аудио#6: Russian: 48 kHz/24-bit, DTS-HD MA 5.1, 3510.00 kbps avg (DTS Core: 5.1 / 48 kHz / 1509 kbps) |Одноголосый закадровый, А.Гаврилов|
Аудио#7: Russian: 48 kHz, AC3, 3/2 (L,C,R,l,r) + LFE ch, 640.00 kbps avg |Одноголосый закадровый, В.Горчаков|
Аудио#8: Russian: 48 kHz, AC3, 3/2 (L,C,R,l,r) + LFE ch, 640.00 kbps avg |Одноголосый закадровый, Л.Володарский|
Аудио#9: Russian: 48 kHz, AC3, 3/2 (L,C,R,l,r) + LFE ch, 640.00 kbps avg |Одноголосый закадровый, А.Багичев|
Аудио#10: English: 48 kHz/24-bit, DTS-HD MA 5.1, 3468.00 kbps avg (DTS Core: 5.1 / 48 kHz / 1509 kbps)
Аудио#11: English: 48 kHz, AC3, 2/0 (L,R) ch, 192.00 kbps avg |Commentary by Sylvester Stallone|
Аудио#12: English: 48 kHz, AC3, 2/0 (L,R) ch, 192.00 kbps avg |Commentary by director John G. Avildsen, producers Irwin Winkler, Robert Chartoff, actors Talia Shire, Carl Weathers, Burt Young and steadicam inventor Garret Brown|
Формат субтитров: softsub (PGS)

BDInfo:

Disc Title: ROCKY 1
Disc Size: 31 249 863 216 bytes
Protection: AACS
BD-Java: No
BDInfo: 0.5.2
Notes:
BDINFO HOME AND REPORTS SUBMISSION:
Cinema Squid
http://www.cinemasquid.com/Tools.aspx
INCLUDES FORUMS REPORT FOR:
Unofficial Blu-ray Audio and Video Specifications Thread
http://www.avsforum.com/avs-vb/showthread.php?t=760714
http://forum.blu-ray.com/showthread.php?t=3338
********************
PLAYLIST: 00000.MPLS
********************
Код:
Total   Video
Title                                                           Codec   Length  Movie Size      Disc Size       Bitrate Bitrate Main Audio Track                          Secondary Audio Track
-----                                                           ------  ------- --------------  --------------  ------- ------- ------------------                        ---------------------
00000.MPLS                                                      MPEG-2  1:59:35 31 249 704 960  31 249 863 216  34,84   18,32   DTS-HD Master 5.1 3468Kbps (48kHz/24-bit)
Код:
DISC INFO:
Disc Title:     ROCKY 1
Disc Size:      31 249 863 216 bytes
Protection:     AACS
BD-Java:        No
BDInfo:         0.5.2
PLAYLIST REPORT:
Name:                   00000.MPLS
Size:                   31 249 704 960 bytes
Length:                 1:59:35 (h:m:s)
Total Bitrate:          34,84 Mbps
Description:
VIDEO:
Codec                   Bitrate             Description
-----                   -------             -----------
MPEG-2 Video            18324 kbps          1080p / 23,976 fps / 16:9
AUDIO:
Codec                           Language        Bitrate         Description
-----                           --------        -------         -----------
DTS-HD Master Audio             English         3468 kbps       5.1 / 48 kHz / 3468 kbps / 24-bit (DTS Core: 5.1 / 48 kHz / 1509 kbps / 24-bit)
DTS-HD Master Audio             Russian         3510 kbps       5.1 / 48 kHz / 3510 kbps / 24-bit (DTS Core: 5.1 / 48 kHz / 1509 kbps / 24-bit)
DTS-HD Master Audio             Russian         3516 kbps       5.1 / 48 kHz / 3516 kbps / 24-bit (DTS Core: 5.1 / 48 kHz / 1509 kbps / 24-bit)
Dolby Digital Audio             Russian         640 kbps        5.1 / 48 kHz / 640 kbps
Dolby Digital Audio             Russian         640 kbps        5.1 / 48 kHz / 640 kbps
Dolby Digital Audio             Russian         640 kbps        5.1 / 48 kHz / 640 kbps
Dolby Digital Audio             Russian         384 kbps        5.1 / 48 kHz / 384 kbps
Dolby Digital Audio             English         192 kbps        2.0 / 48 kHz / 192 kbps
Dolby Digital Audio             English         192 kbps        2.0 / 48 kHz / 192 kbps
Dolby Digital Audio             Russian         192 kbps        2.0 / 48 kHz / 192 kbps
Dolby Digital Audio             Russian         192 kbps        2.0 / 48 kHz / 192 kbps
Dolby Digital Audio             Ukrainian       256 kbps        2.0 / 48 kHz / 256 kbps
SUBTITLES:
Codec                           Language        Bitrate         Description
-----                           --------        -------         -----------
Presentation Graphics           English         45,799 kbps
Presentation Graphics           Russian         0,345 kbps
Presentation Graphics           Russian         29,178 kbps
Presentation Graphics           Russian         32,727 kbps
Presentation Graphics           Russian         31,388 kbps
FILES:
Name            Time In         Length          Size            Total Bitrate
----            -------         ------          ----            -------------
00000.M2TS      0:00:00.000     1:59:35.157     31 249 704 960  34 842
CHAPTERS:
Number          Time In         Length          Avg Video Rate  Max 1-Sec Rate  Max 1-Sec Time  Max 5-Sec Rate  Max 5-Sec Time  Max 10Sec Rate  Max 10Sec Time  Avg Frame Size  Max Frame Size  Max Frame Time
------          -------         ------          --------------  --------------  --------------  --------------  --------------  --------------  --------------  --------------  --------------  --------------
1               0:00:00.000     0:07:18.271     18 281 kbps     34 605 kbps     00:00:40.665    30 376 kbps     00:00:52.302    28 770 kbps     00:00:48.048    95 301 bytes    526 102 bytes   00:04:33.189
2               0:07:18.271     0:04:29.184     18 706 kbps     28 290 kbps     00:11:29.980    24 483 kbps     00:11:26.018    23 155 kbps     00:11:21.097    97 525 bytes    676 823 bytes   00:10:06.355
3               0:11:47.455     0:04:34.274     18 252 kbps     25 468 kbps     00:13:50.955    23 997 kbps     00:13:50.955    23 296 kbps     00:13:50.955    95 159 bytes    495 304 bytes   00:15:47.613
4               0:16:21.730     0:05:53.811     18 225 kbps     27 286 kbps     00:19:24.329    26 053 kbps     00:19:55.777    25 828 kbps     00:19:54.401    95 019 bytes    426 118 bytes   00:22:05.866
5               0:22:15.541     0:03:44.474     18 166 kbps     30 789 kbps     00:22:33.185    30 253 kbps     00:22:30.640    29 409 kbps     00:22:30.557    94 711 bytes    424 050 bytes   00:25:59.808
6               0:26:00.016     0:06:55.539     18 258 kbps     24 280 kbps     00:27:16.384    22 652 kbps     00:26:15.407    21 930 kbps     00:26:10.402    95 189 bytes    466 347 bytes   00:31:33.141
7               0:32:55.556     0:01:01.978     20 742 kbps     26 026 kbps     00:33:20.248    23 971 kbps     00:33:19.205    22 501 kbps     00:33:19.205    108 140 bytes   433 805 bytes   00:33:57.535
8               0:33:57.535     0:06:13.539     17 844 kbps     26 331 kbps     00:34:03.291    24 835 kbps     00:34:53.466    24 188 kbps     00:34:46.918    93 028 bytes    656 646 bytes   00:35:26.874
9               0:40:11.074     0:07:22.734     18 246 kbps     22 530 kbps     00:42:44.144    21 340 kbps     00:45:01.782    20 812 kbps     00:42:16.700    95 126 bytes    384 452 bytes   00:47:20.420
10              0:47:33.809     0:07:22.942     18 231 kbps     27 444 kbps     00:54:55.750    25 287 kbps     00:54:15.251    23 928 kbps     00:54:46.741    95 046 bytes    545 670 bytes   00:53:43.720
11              0:54:56.751     0:02:26.437     18 209 kbps     21 865 kbps     00:55:26.156    20 794 kbps     00:55:02.007    20 439 kbps     00:55:19.941    94 933 bytes    401 060 bytes   00:56:32.764
12              0:57:23.189     0:05:14.398     18 248 kbps     24 291 kbps     01:00:05.601    22 263 kbps     01:00:03.057    20 988 kbps     00:58:18.411    95 138 bytes    403 758 bytes   00:59:28.606
13              1:02:37.587     0:08:04.107     18 250 kbps     27 159 kbps     01:06:57.054    21 508 kbps     01:06:09.674    21 135 kbps     01:06:09.674    95 148 bytes    496 180 bytes   01:10:41.487
14              1:10:41.695     0:06:54.289     18 738 kbps     29 609 kbps     01:16:44.516    24 237 kbps     01:16:40.429    23 283 kbps     01:14:36.930    97 692 bytes    464 488 bytes   01:14:22.207
15              1:17:35.984     0:01:39.432     17 988 kbps     23 546 kbps     01:17:38.111    22 080 kbps     01:17:36.068    20 456 kbps     01:17:35.984    93 782 bytes    439 750 bytes   01:19:15.417
16              1:19:15.417     0:02:48.375     18 342 kbps     38 697 kbps     01:19:15.417    30 388 kbps     01:19:15.417    27 173 kbps     01:19:15.417    95 627 bytes    455 174 bytes   01:19:15.459
17              1:22:03.792     0:03:19.199     18 604 kbps     28 907 kbps     01:24:43.328    23 710 kbps     01:24:39.449    22 475 kbps     01:24:34.444    96 993 bytes    377 666 bytes   01:22:48.505
18              1:25:22.992     0:03:52.858     17 902 kbps     27 481 kbps     01:28:20.545    26 535 kbps     01:28:12.912    26 038 kbps     01:28:12.453    93 334 bytes    698 163 bytes   01:28:53.119
19              1:29:15.850     0:05:02.551     18 197 kbps     45 126 kbps     01:32:07.313    39 163 kbps     01:32:04.977    30 655 kbps     01:32:00.723    94 870 bytes    553 650 bytes   01:34:18.319
20              1:34:18.402     0:05:05.721     18 185 kbps     42 251 kbps     01:36:45.299    39 414 kbps     01:36:41.587    37 824 kbps     01:36:36.415    94 810 bytes    487 892 bytes   01:36:41.712
21              1:39:24.124     0:07:46.550     18 526 kbps     32 813 kbps     01:42:39.820    30 669 kbps     01:42:39.069    26 145 kbps     01:42:37.192    96 584 bytes    579 260 bytes   01:46:08.195
22              1:47:10.674     0:01:23.375     18 880 kbps     34 713 kbps     01:48:15.155    32 287 kbps     01:48:11.902    25 574 kbps     01:48:06.897    98 432 bytes    489 301 bytes   01:47:44.791
23              1:48:34.049     0:06:05.532     20 795 kbps     40 314 kbps     01:52:13.893    34 525 kbps     01:52:13.143    28 125 kbps     01:52:13.143    108 402 bytes   565 840 bytes   01:52:58.104
24              1:54:39.581     0:04:55.576     15 456 kbps     27 554 kbps     01:56:05.375    24 946 kbps     01:55:52.362    23 316 kbps     01:55:27.587    80 601 bytes    460 102 bytes   01:55:53.071
STREAM DIAGNOSTICS:
File            PID             Type            Codec           Language                Seconds                 Bitrate                 Bytes           Packets
----            ---             ----            -----           --------                --------------          --------------          -------------   -----
00000.M2TS      4113 (0x1011)   0x02            MPEG-2                                  7175,043                18 324                  16 434 538 564  89 418 197
00000.M2TS      4352 (0x1100)   0x86            DTS-HD MA       rus (Russian)           7175,043                3 516                   3 153 090 568   18 256 262
00000.M2TS      4353 (0x1101)   0x81            AC3             rus (Russian)           7175,043                192                     172 197 888     1 121 080
00000.M2TS      4354 (0x1102)   0x81            AC3             rus (Russian)           7175,043                384                     344 408 064     2 018 016
00000.M2TS      4355 (0x1103)   0x81            AC3             rus (Russian)           7175,043                192                     172 202 496     1 121 110
00000.M2TS      4356 (0x1104)   0x81            AC3             ukr (Ukrainian)         7175,043                256                     229 604 352     1 345 338
00000.M2TS      4357 (0x1105)   0x86            DTS-HD MA       rus (Russian)           7175,043                3 510                   3 148 392 676   18 229 379
00000.M2TS      4358 (0x1106)   0x81            AC3             rus (Russian)           7175,043                640                     574 013 440     3 363 360
00000.M2TS      4359 (0x1107)   0x81            AC3             rus (Russian)           7175,043                640                     574 013 440     3 363 360
00000.M2TS      4360 (0x1108)   0x81            AC3             rus (Russian)           7175,043                640                     574 013 440     3 363 360
00000.M2TS      4361 (0x1109)   0x86            DTS-HD MA       eng (English)           7175,043                3 468                   3 110 340 168   18 019 283
00000.M2TS      4362 (0x110A)   0x81            AC3             eng (English)           7175,043                192                     172 199 424     1 121 090
00000.M2TS      4363 (0x110B)   0x81            AC3             eng (English)           7175,043                192                     172 197 120     1 121 075
00000.M2TS      4608 (0x1200)   0x90            PGS             rus (Russian)           7175,043                0                       309 370         1 790
00000.M2TS      4609 (0x1201)   0x90            PGS             rus (Russian)           7175,043                29                      26 169 311      150 911
00000.M2TS      4610 (0x1202)   0x90            PGS             rus (Russian)           7175,043                33                      29 352 660      170 487
00000.M2TS      4611 (0x1203)   0x90            PGS             rus (Russian)           7175,043                31                      28 151 595      163 908
00000.M2TS      4612 (0x1204)   0x90            PGS             eng (English)           7175,043                46                      41 076 686      234 726
QUICK SUMMARY:
Disc Title: ROCKY 1
Disc Size: 31 249 863 216 bytes
Protection: AACS
BD-Java: No
Playlist: 00000.MPLS
Size: 31 249 704 960 bytes
Length: 1:59:35
Total Bitrate: 34,84 Mbps
Video: MPEG-2 Video / 18324 kbps / 1080p / 23,976 fps / 16:9
Audio: English / DTS-HD Master Audio / 5.1 / 48 kHz / 3468 kbps / 24-bit (DTS Core: 5.1 / 48 kHz / 1509 kbps / 24-bit)
Audio: Russian / DTS-HD Master Audio / 5.1 / 48 kHz / 3510 kbps / 24-bit (DTS Core: 5.1 / 48 kHz / 1509 kbps / 24-bit)
Audio: Russian / DTS-HD Master Audio / 5.1 / 48 kHz / 3516 kbps / 24-bit (DTS Core: 5.1 / 48 kHz / 1509 kbps / 24-bit)
Audio: Russian / Dolby Digital Audio / 5.1 / 48 kHz / 640 kbps
Audio: Russian / Dolby Digital Audio / 5.1 / 48 kHz / 640 kbps
Audio: Russian / Dolby Digital Audio / 5.1 / 48 kHz / 640 kbps
Audio: Russian / Dolby Digital Audio / 5.1 / 48 kHz / 384 kbps
Audio: English / Dolby Digital Audio / 2.0 / 48 kHz / 192 kbps
Audio: English / Dolby Digital Audio / 2.0 / 48 kHz / 192 kbps
Audio: Russian / Dolby Digital Audio / 2.0 / 48 kHz / 192 kbps
Audio: Russian / Dolby Digital Audio / 2.0 / 48 kHz / 192 kbps
Audio: Ukrainian / Dolby Digital Audio / 2.0 / 48 kHz / 256 kbps
Subtitle: English / 45,799 kbps
Subtitle: Russian / 0,345 kbps
Subtitle: Russian / 29,178 kbps
Subtitle: Russian / 32,727 kbps
Subtitle: Russian / 31,388 kbps

Скриншоты

       
Рокки 2 / Rocky 2-«Rocky shows he a champ, and wins!»
Страна: США
Жанр: боевик, драма, спорт
Год выпуска: 1979
Продолжительность: 01:59:10-Перевод: Профессиональный (многоголосый закадровый) х4
Перевод: Авторский (одноголосый закадровый) х2
Cубтитры: Russian (Forced), Russian (Киномания), Russian (R5), Ukrainian (Forced), Ukrainian (R5), English (SDH)
Оригинальная аудиодорожка: English-Режиссер: Джон Г. Эвилдсен / John G. Avildsen, Сильвестр Сталлоне / Sylvester Stallone
В ролях: Сильвестр Сталлоне, Талия Шайр, Берт Янг, Карл Уэзерс, Бёрджесс Мередит, Тони Бертон, Джо Спинелл, Леонард Гейнс, Сильвия Милс, Фрэнк МакРей-Описание: Проиграв по очкам в незабываемом поединке за звание чемпиона мира в первой части, Рокки Бальбоа пытается бросить спорт и начать новую спокойную жизнь. Однако, это у него не получается, ведь бокс - его призвание.
В итоге, несмотря на протесты молодой жены, Рокки принимает вызов своего старого соперника Апполо Крида на матч-реванш. Апполо пребывает в прекрасной физической форме и горит желанием отомстить за нанесенные ему в первом поединке побои. Так что у Рокки есть все шансы потерять не только жену, но и здоровье.-Качество: BDRemux 1080p
Контейнер: BDAV
Видео: H.264, 1920x1080, 23,976 fps, 31058 kbps
Аудио#1: Russian: 48 kHz, AC3, 3/2 (L,C,R,l,r) + LFE ch, 448.00 kbps avg |Многоголосый закадровый, Киномания|
Аудио#2: Russian: 48 kHz/16-bit, DTS, 3/2 (L,C,R,l,r) + LFE ch, 768.00 kbps avg |Многоголосый закадровый, R5 (20th Century Fox)|
Аудио#3: Russian: 48 kHz, AC3, 2/0 (L,R) ch, 192.00 kbps avg |Многоголосый закадровый, DDV|
Аудио#4: Russian: 48 kHz, AC3, 2/0 (L,R) ch, 192.00 kbps avg |Многоголосый закадровый, Варус Видео (VHS)|
Аудио#5: Ukrainian: 48 kHz, AC3, 2/0 (L,R) ch, 256.00 kbps avg |Многоголосый закадровый, Так Треба Продакшн (телеканал Інтер)|
Аудио#6: Russian: 48 kHz/24-bit, DTS-HD MA 5.1, 3471.00 kbps avg (DTS Core: 5.1 / 48 kHz / 1509 kbps) |Одноголосый закадровый, А.Гаврилов|
Аудио#7: Russian: 48 kHz, AC3, 2/0 (L,R) ch, 192.00 kbps avg |Одноголосый закадровый, Л.Володарский|
Аудио#8: English: 48 kHz/24-bit, DTS-HD MA 5.1, 3453.00 kbps avg (DTS Core: 5.1 / 48 kHz / 1509 kbps)
Формат субтитров: softsub (PGS)

BDInfo:

Disc Title: ROCKY 2
Disc Size: 38 149 416 144 bytes
Protection: AACS
BD-Java: No
BDInfo: 0.5.2
Notes:
BDINFO HOME AND REPORTS SUBMISSION:
Cinema Squid
http://www.cinemasquid.com/Tools.aspx
INCLUDES FORUMS REPORT FOR:
Unofficial Blu-ray Audio and Video Specifications Thread
http://www.avsforum.com/avs-vb/showthread.php?t=760714
http://forum.blu-ray.com/showthread.php?t=3338
********************
PLAYLIST: 00000.MPLS
********************
Код:
Total   Video
Title                                                           Codec   Length  Movie Size      Disc Size       Bitrate Bitrate Main Audio Track                          Secondary Audio Track
-----                                                           ------  ------- --------------  --------------  ------- ------- ------------------                        ---------------------
00000.MPLS                                                      AVC     1:59:10 38 149 312 512  38 149 416 144  42,68   31,06   DTS-HD Master 5.1 3453Kbps (48kHz/24-bit)
Код:
DISC INFO:
Disc Title:     ROCKY 2
Disc Size:      38 149 416 144 bytes
Protection:     AACS
BD-Java:        No
BDInfo:         0.5.2
PLAYLIST REPORT:
Name:                   00000.MPLS
Size:                   38 149 312 512 bytes
Length:                 1:59:10 (h:m:s)
Total Bitrate:          42,68 Mbps
Description:
VIDEO:
Codec                   Bitrate             Description
-----                   -------             -----------
MPEG-4 AVC Video        31058 kbps          1080p / 23,976 fps / 16:9 / High Profile 4.1
AUDIO:
Codec                           Language        Bitrate         Description
-----                           --------        -------         -----------
DTS-HD Master Audio             English         3453 kbps       5.1 / 48 kHz / 3453 kbps / 24-bit (DTS Core: 5.1 / 48 kHz / 1509 kbps / 24-bit)
DTS-HD Master Audio             Russian         3471 kbps       5.1 / 48 kHz / 3471 kbps / 24-bit (DTS Core: 5.1 / 48 kHz / 1509 kbps / 24-bit)
DTS Audio                       Russian         768 kbps        5.1 / 48 kHz / 768 kbps / 16-bit
Dolby Digital Audio             Russian         448 kbps        5.1 / 48 kHz / 448 kbps
Dolby Digital Audio             Russian         192 kbps        2.0 / 48 kHz / 192 kbps
Dolby Digital Audio             Russian         192 kbps        2.0 / 48 kHz / 192 kbps
Dolby Digital Audio             Russian         192 kbps        2.0 / 48 kHz / 192 kbps / Dolby Surround
Dolby Digital Audio             Ukrainian       256 kbps        2.0 / 48 kHz / 256 kbps
SUBTITLES:
Codec                           Language        Bitrate         Description
-----                           --------        -------         -----------
Presentation Graphics           English         53,756 kbps
Presentation Graphics           Russian         0,102 kbps
Presentation Graphics           Russian         31,886 kbps
Presentation Graphics           Russian         28,343 kbps
Presentation Graphics           Ukrainian       0,098 kbps
Presentation Graphics           Ukrainian       27,789 kbps
FILES:
Name            Time In         Length          Size            Total Bitrate
----            -------         ------          ----            -------------
00000.M2TS      0:00:00.000     1:59:10.976     38 149 312 512  42 679
CHAPTERS:
Number          Time In         Length          Avg Video Rate  Max 1-Sec Rate  Max 1-Sec Time  Max 5-Sec Rate  Max 5-Sec Time  Max 10Sec Rate  Max 10Sec Time  Avg Frame Size  Max Frame Size  Max Frame Time
------          -------         ------          --------------  --------------  --------------  --------------  --------------  --------------  --------------  --------------  --------------  --------------
1               0:00:00.000     0:07:50.051     31 397 kbps     38 411 kbps     00:07:32.743    33 480 kbps     00:07:28.698    32 874 kbps     00:07:23.693    163 672 bytes   389 786 bytes   00:06:01.361
2               0:07:50.051     0:06:16.960     31 000 kbps     33 872 kbps     00:08:35.097    32 868 kbps     00:07:59.437    32 645 kbps     00:07:55.892    161 622 bytes   276 686 bytes   00:14:00.756
3               0:14:07.011     0:07:55.892     31 641 kbps     33 608 kbps     00:15:43.317    32 579 kbps     00:21:54.646    32 451 kbps     00:21:12.270    164 961 bytes   302 811 bytes   00:14:50.723
4               0:22:02.904     0:07:21.608     30 761 kbps     34 700 kbps     00:28:19.072    32 791 kbps     00:28:15.068    32 594 kbps     00:28:10.063    160 376 bytes   323 458 bytes   00:24:02.065
5               0:29:24.512     0:11:24.391     30 892 kbps     33 517 kbps     00:31:01.401    32 522 kbps     00:32:33.826    32 440 kbps     00:37:10.144    161 059 bytes   310 099 bytes   00:31:34.267
6               0:40:48.904     0:09:07.547     31 143 kbps     33 187 kbps     00:45:16.880    32 614 kbps     00:45:12.876    32 440 kbps     00:45:07.871    162 364 bytes   275 511 bytes   00:45:31.311
7               0:49:56.451     0:11:57.216     30 906 kbps     34 055 kbps     00:52:40.240    32 837 kbps     00:52:36.111    32 459 kbps     00:56:39.187    161 131 bytes   283 904 bytes   00:55:45.592
8               1:01:53.668     0:02:27.856     30 311 kbps     32 985 kbps     01:02:15.565    32 275 kbps     01:02:11.519    32 130 kbps     01:02:06.514    158 027 bytes   273 925 bytes   01:01:59.674
9               1:04:21.524     0:07:40.210     31 263 kbps     33 359 kbps     01:09:40.134    32 524 kbps     01:11:26.448    32 429 kbps     01:10:04.074    162 989 bytes   289 075 bytes   01:09:18.696
10              1:12:01.734     0:04:58.839     31 879 kbps     33 304 kbps     01:12:13.495    32 529 kbps     01:12:43.776    32 455 kbps     01:12:38.771    166 203 bytes   284 579 bytes   01:12:49.782
11              1:17:00.573     0:09:27.191     30 253 kbps     33 195 kbps     01:22:07.547    32 496 kbps     01:22:03.501    32 424 kbps     01:21:58.538    157 724 bytes   237 492 bytes   01:25:01.346
12              1:26:27.765     0:06:13.331     31 507 kbps     35 628 kbps     01:28:48.114    32 960 kbps     01:28:44.110    32 570 kbps     01:28:39.105    164 266 bytes   382 238 bytes   01:26:53.917
13              1:32:41.097     0:08:46.442     30 514 kbps     35 990 kbps     01:38:50.049    33 103 kbps     01:38:46.045    32 714 kbps     01:38:41.040    159 086 bytes   310 540 bytes   01:40:39.992
14              1:41:27.539     0:10:27.002     31 366 kbps     34 437 kbps     01:47:08.004    32 717 kbps     01:50:13.732    32 499 kbps     01:50:08.685    163 530 bytes   261 627 bytes   01:47:02.123
15              1:51:54.541     0:02:46.750     31 785 kbps     36 514 kbps     01:53:55.995    32 575 kbps     01:52:08.138    32 415 kbps     01:53:07.864    165 713 bytes   278 008 bytes   01:53:56.663
16              1:54:41.291     0:04:29.684     30 764 kbps     35 841 kbps     01:59:07.056    32 988 kbps     01:56:17.929    32 714 kbps     01:56:12.840    160 413 bytes   397 989 bytes   01:58:22.512
STREAM DIAGNOSTICS:
File            PID             Type            Codec           Language                Seconds                 Bitrate                 Bytes           Packets
----            ---             ----            -----           --------                --------------          --------------          -------------   -----
00000.M2TS      4113 (0x1011)   0x1B            AVC                                     7150,894                31 058                  27 761 496 371  150 978 545
00000.M2TS      4352 (0x1100)   0x81            AC3             rus (Russian)           7150,894                448                     400 445 696     2 234 630
00000.M2TS      4353 (0x1101)   0x82            DTS             rus (Russian)           7150,894                755                     674 426 424     4 022 424
00000.M2TS      4354 (0x1102)   0x81            AC3             rus (Russian)           7150,894                192                     171 624 192     1 117 345
00000.M2TS      4355 (0x1103)   0x81            AC3             rus (Russian)           7150,894                192                     171 624 192     1 117 345
00000.M2TS      4356 (0x1104)   0x81            AC3             ukr (Ukrainian)         7150,894                256                     228 831 232     1 340 808
00000.M2TS      4357 (0x1105)   0x86            DTS-HD MA       rus (Russian)           7150,894                3 471                   3 102 414 328   17 971 740
00000.M2TS      4358 (0x1106)   0x81            AC3             rus (Russian)           7150,894                192                     171 623 424     1 117 340
00000.M2TS      4359 (0x1107)   0x86            DTS-HD MA       eng (English)           7150,894                3 453                   3 086 727 796   17 884 397
00000.M2TS      4608 (0x1200)   0x90            PGS             rus (Russian)           7150,894                0                       91 059          536
00000.M2TS      4609 (0x1201)   0x90            PGS             rus (Russian)           7150,894                32                      28 502 285      166 466
00000.M2TS      4610 (0x1202)   0x90            PGS             rus (Russian)           7150,894                28                      25 335 235      147 350
00000.M2TS      4611 (0x1203)   0x90            PGS             ukr (Ukrainian)         7150,894                0                       87 265          515
00000.M2TS      4612 (0x1204)   0x90            PGS             ukr (Ukrainian)         7150,894                28                      24 840 078      144 665
00000.M2TS      4613 (0x1205)   0x90            PGS             eng (English)           7150,894                54                      48 051 408      274 686
QUICK SUMMARY:
Disc Title: ROCKY 2
Disc Size: 38 149 416 144 bytes
Protection: AACS
BD-Java: No
Playlist: 00000.MPLS
Size: 38 149 312 512 bytes
Length: 1:59:10
Total Bitrate: 42,68 Mbps
Video: MPEG-4 AVC Video / 31058 kbps / 1080p / 23,976 fps / 16:9 / High Profile 4.1
Audio: English / DTS-HD Master Audio / 5.1 / 48 kHz / 3453 kbps / 24-bit (DTS Core: 5.1 / 48 kHz / 1509 kbps / 24-bit)
Audio: Russian / DTS-HD Master Audio / 5.1 / 48 kHz / 3471 kbps / 24-bit (DTS Core: 5.1 / 48 kHz / 1509 kbps / 24-bit)
Audio: Russian / DTS Audio / 5.1 / 48 kHz / 768 kbps / 16-bit
Audio: Russian / Dolby Digital Audio / 5.1 / 48 kHz / 448 kbps
Audio: Russian / Dolby Digital Audio / 2.0 / 48 kHz / 192 kbps
Audio: Russian / Dolby Digital Audio / 2.0 / 48 kHz / 192 kbps
Audio: Russian / Dolby Digital Audio / 2.0 / 48 kHz / 192 kbps / Dolby Surround
Audio: Ukrainian / Dolby Digital Audio / 2.0 / 48 kHz / 256 kbps
Subtitle: English / 53,756 kbps
Subtitle: Russian / 0,102 kbps
Subtitle: Russian / 31,886 kbps
Subtitle: Russian / 28,343 kbps
Subtitle: Ukrainian / 0,098 kbps
Subtitle: Ukrainian / 27,789 kbps

Скриншоты

       
Рокки 3 / Rocky 3-«The greatest challenge.»
Страна: США
Жанр: боевик, драма, спорт
Год выпуска: 1982
Продолжительность: 01:39:38-Перевод: Профессиональный (многоголосый закадровый) х4
Перевод: Авторский (одноголосый закадровый)
Cубтитры: Russian (Forced), Russian (Киномания), Russian (R5), Ukrainian (Forced), Ukrainian (R5), English (SDH)
Оригинальная аудиодорожка: English-Режиссер: Джон Г. Эвилдсен / John G. Avildsen, Сильвестр Сталлоне / Sylvester Stallone
В ролях: Сильвестр Сталлоне, Талия Шайр, Берт Янг, Карл Уэзерс, Бёрджесс Мередит, Тони Бертон, Мистер Ти, Халк Хоган, Йен Фрид, Аль Сильвани-Описание: Одержав сокрушительную победу над Аполло Кридом, Рокки купается в лучах славы. Его окружает роскошь и престиж. Он с легкостью разделывается со всеми претендентами на его чемпионский пояс. Гонорары велики, а тренировки непродолжительны, и в результате Рокки начинает терять свою знаменитую скорость и точность.
Плюс ко всему сказываются старые травмы - все-таки он пропускал слишком много ударов по голове. В итоге, когда на ринге появляется молодой непробиваемый, подобный урагану, боксер по имени Клаббер, Рокки оказывается неспособным выдержать его сокрушительные удары и падает мертвым грузом.
После такого позора от него отворачиваются все, кроме бывшего врага, а теперь товарища по несчастью Аполло Крида.-Качество: BDRemux 1080p
Контейнер: BDAV
Видео: H.264, 1920x1080, 23,976 fps, 30043 kbps
Аудио#1: Russian: 48 kHz/16-bit, DTS-HD MA 5.1, 2088.00 kbps avg |Многоголосый закадровый, Киномания|
Аудио#2: Russian: 48 kHz, AC3, 3/2 (L,C,R,l,r) + LFE ch, 448.00 kbps avg |Многоголосый закадровый, R5 (20th Century Fox)|
Аудио#3: Russian: 48 kHz, AC3, 3/2 (L,C,R,l,r) + LFE ch, 384.00 kbps avg |Многоголосый закадровый, DDV|
Аудио#4: Russian: 48 kHz, AC3, 1/0 (C) ch, 192.00 kbps avg |Многоголосый закадровый, Варус Видео (VHS)|
Аудио#5: Ukrainian: 48 kHz, AC3, 2/0 (L,R) ch, 256.00 kbps avg |Многоголосый закадровый, Так Треба Продакшн (телеканал Інтер)|
Аудио#6: Russian: 48 kHz/16-bit, DTS-HD MA 5.1, 2086.00 kbps avg |Одноголосый закадровый, А.Гаврилов|
Аудио#7: English: 48 kHz/24-bit, DTS-HD MA 5.1, 2285.00 kbps avg
Формат субтитров: softsub (PGS)

BDInfo:

Disc Title: ROCKY 3
Disc Size: 30 259 533 432 bytes
Protection: AACS
BD-Java: No
BDInfo: 0.5.2
Notes:
BDINFO HOME AND REPORTS SUBMISSION:
Cinema Squid
http://www.cinemasquid.com/Tools.aspx
INCLUDES FORUMS REPORT FOR:
Unofficial Blu-ray Audio and Video Specifications Thread
http://www.avsforum.com/avs-vb/showthread.php?t=760714
http://forum.blu-ray.com/showthread.php?t=3338
********************
PLAYLIST: 00000.MPLS
********************
Код:
Total   Video
Title                                                           Codec   Length  Movie Size      Disc Size       Bitrate Bitrate Main Audio Track                          Secondary Audio Track
-----                                                           ------  ------- --------------  --------------  ------- ------- ------------------                        ---------------------
00000.MPLS                                                      AVC     1:39:38 30 259 445 760  30 259 533 432  40,49   30,04   DTS-HD Master 5.1 2285Kbps (48kHz/24-bit)
[code]
DISC INFO:
Disc Title: ROCKY 3
Disc Size: 30 259 533 432 bytes
Protection: AACS
BD-Java: No
BDInfo: 0.5.2
PLAYLIST REPORT:
Name: 00000.MPLS
Size: 30 259 445 760 bytes
Length: 1:39:38 (h:m:s)
Total Bitrate: 40,49 Mbps
Description:
VIDEO:
Codec Bitrate Description
----- ------- -----------
MPEG-4 AVC Video 30043 kbps 1080p / 23,976 fps / 16:9 / High Profile 4.1
AUDIO:
Codec Language Bitrate Description
----- -------- ------- -----------
DTS-HD Master Audio English 2285 kbps 5.1 / 48 kHz / 2285 kbps / 24-bit (DTS Core: 5.1 / 48 kHz / 1509 kbps / 24-bit)
DTS-HD Master Audio Russian 2088 kbps 5.1 / 48 kHz / 2088 kbps / 16-bit (DTS Core: 5.1 / 48 kHz / 1509 kbps / 16-bit)
DTS-HD Master Audio Russian 2086 kbps 5.1 / 48 kHz / 2086 kbps / 16-bit (DTS Core: 5.1 / 48 kHz / 1509 kbps / 16-bit)
Dolby Digital Audio Russian 448 kbps 5.1 / 48 kHz / 448 kbps
Dolby Digital Audio Russian 384 kbps 5.1 / 48 kHz / 384 kbps
Dolby Digital Audio Ukrainian 256 kbps 2.0 / 48 kHz / 256 kbps
Dolby Digital Audio Russian 192 kbps 1.0 / 48 kHz / 192 kbps
SUBTITLES:
Codec Language Bitrate Description
----- -------- ------- -----------
Presentation Graphics English 59,113 kbps
Presentation Graphics Russian 0,478 kbps
Presentation Graphics Russian 29,724 kbps
Presentation Graphics Russian 27,150 kbps
Presentation Graphics Ukrainian 0,448 kbps
Presentation Graphics Ukrainian 27,108 kbps
FILES:
Name Time In Length Size Total Bitrate
---- ------- ------ ---- -------------
00000.M2TS 0:00:00.000 1:39:38.016 30 259 445 760 40 494
CHAPTERS:
Number Time In Length Avg Video Rate Max 1-Sec Rate Max 1-Sec Time Max 5-Sec Rate Max 5-Sec Time Max 10Sec Rate Max 10Sec Time Avg

_________________
Человек – это канат, натянутый между животным и сверхчеловеком, – канат над пропастью.
В человеке ценно то, что он мост, а не цель. Фридрих Ницше
Other forum [Profile] [PM]
Display posts from previous:    
Reply to topic

The time now is: Today 11:04

All times are GMT + 3 Hours



You cannot post new topics in this forum
You cannot reply to topics in this forum
You cannot edit your posts in this forum
You cannot delete your posts in this forum
You cannot vote in polls in this forum
You cannot attach files in this forum
You cannot download files in this forum