Today is a free download without charge Download

Железный рыцарь / Ironclad (Джонатан Инглиш / Jonathan English) [2011, США, Германия, Великобритания, боевик, приключения, BluRay 1080p] DUB + Original Eng

Reply to topic
 
Author
Message

Delia ®

Gender:

Longevity: 9 years 6 months

Posts: 1821

Торрент-статистика

Post 15-Sep-2011 14:04

[Quote]

Железный рыцарь / Ironclad«И хлынет кровь»

Страна: США, Германия, Великобритания
Жанр: боевик, приключения
Год выпуска: 2011
Продолжительность: 02:00:45
Перевод: Профессиональный дублированный
Cубтитры: Русские, Украинские
Оригинальная аудиодорожка: английский
Режиссер: Джонатан Инглиш / Jonathan English
В ролях: Джеймс Пьюрфой, Кейт Мара, Пол Джаматти, Брайан Кокс, Джейсон Флеминг, Чарльз Дэнс, Дерек Джекоби, Маккензи Крук, Владимир Кулич, Джэми Формен
Описание: В 13-ом веке группа рыцарей Тамплиеров защищает Рочестерский замок от тирании короля Ионна.

Бонусы:
- Анонсы
Меню: есть
Тип релиза: Blu-ray disc
Контейнер: BDMV
Видео: MPEG-4 AVC Video / 19992 kbps / 1920х1080/ 23,976 fps / 16:9 / High Profile 4.1
Аудио 1: Russian / DTS-HD Master Audio / 5.1 / 48 kHz / 2159 kbps / 16-bit (DTS Core: 5.1 / 48 kHz / 1509 kbps / 16-bit) Дубляж
Аудио 2: English / DTS-HD High-Res Audio / 5.1 / 48 kHz / 2046 kbps / 16-bit (DTS Core: 5.1 / 48 kHz / 1509 kbps / 16-bit)

BDInfo:

Disc Title: IRONCLAD
Disc Size: 24 768 677 310 bytes
Protection: AACS
BD-Java: No
BDInfo: 0.5.6
Notes:
BDINFO HOME:
Cinema Squid
http://www.cinemasquid.com/blu-ray/tools/bdinfo
INCLUDES FORUMS REPORT FOR:
AVS Forum Blu-ray Audio and Video Specifications Thread
http://www.avsforum.com/avs-vb/showthread.php?t=1155731
********************
PLAYLIST: 00004.MPLS
********************
Код:
Total   Video
Title                                                           Codec   Length  Movie Size      Disc Size       Bitrate Bitrate Main Audio Track                          Secondary Audio Track
-----                                                           ------  ------- --------------  --------------  ------- ------- ------------------                        ---------------------
00004.MPLS                                                      AVC     2:00:45 23 339 145 216  24 768 677 310  25,77   19,99   DTS-HD Master 5.1 2159Kbps (48kHz/16-bit)
Код:
DISC INFO:
Disc Title:     IRONCLAD
Disc Size:      24 768 677 310 bytes
Protection:     AACS
BD-Java:        No
BDInfo:         0.5.6
PLAYLIST REPORT:
Name:                   00004.MPLS
Length:                 2:00:45 (h:m:s)
Size:                   23 339 145 216 bytes
Total Bitrate:          25,77 Mbps
VIDEO:
Codec                   Bitrate             Description
-----                   -------             -----------
MPEG-4 AVC Video        19992 kbps          1080p / 23,976 fps / 16:9 / High Profile 4.1
AUDIO:
Codec                           Language        Bitrate         Description
-----                           --------        -------         -----------
DTS-HD Master Audio             Russian         2159 kbps       5.1 / 48 kHz / 2159 kbps / 16-bit (DTS Core: 5.1 / 48 kHz / 1509 kbps / 16-bit)
DTS-HD High-Res Audio           English         2046 kbps       5.1 / 48 kHz / 2046 kbps / 16-bit (DTS Core: 5.1 / 48 kHz / 1509 kbps / 16-bit)
SUBTITLES:
Codec                           Language        Bitrate         Description
-----                           --------        -------         -----------
Presentation Graphics           Russian         19,693 kbps
Presentation Graphics           Ukrainian       17,963 kbps
FILES:
Name            Time In         Length          Size            Total Bitrate
----            -------         ------          ----            -------------
00007.M2TS      0:00:00.000     2:00:45.029     23 339 145 216  25 771
CHAPTERS:
Number          Time In         Length          Avg Video Rate  Max 1-Sec Rate  Max 1-Sec Time  Max 5-Sec Rate  Max 5-Sec Time  Max 10Sec Rate  Max 10Sec Time  Avg Frame Size  Max Frame Size  Max Frame Time
------          -------         ------          --------------  --------------  --------------  --------------  --------------  --------------  --------------  --------------  --------------  --------------
1               0:00:00.000     0:04:28.518     13 079 kbps     30 661 kbps     00:02:04.165    25 759 kbps     00:02:01.621    21 852 kbps     00:02:01.788    68 180 bytes    346 687 bytes   00:02:03.581
2               0:04:28.518     0:03:04.475     18 959 kbps     32 016 kbps     00:07:26.612    24 835 kbps     00:04:35.900    22 811 kbps     00:04:28.518    98 843 bytes    318 539 bytes   00:06:37.271
3               0:07:32.994     0:05:19.444     22 825 kbps     36 244 kbps     00:12:10.396    33 437 kbps     00:11:07.833    32 512 kbps     00:11:28.187    118 999 bytes   292 389 bytes   00:12:52.438
4               0:12:52.438     0:05:14.147     19 551 kbps     34 616 kbps     00:13:03.991    28 400 kbps     00:13:04.283    27 477 kbps     00:13:00.279    101 930 bytes   307 344 bytes   00:13:27.640
5               0:18:06.585     0:05:19.986     20 653 kbps     37 027 kbps     00:18:31.068    33 920 kbps     00:18:22.935    27 180 kbps     00:19:31.879    107 676 bytes   322 590 bytes   00:23:11.264
6               0:23:26.571     0:05:13.271     19 189 kbps     38 309 kbps     00:26:53.570    29 574 kbps     00:25:56.763    27 705 kbps     00:24:57.037    100 043 bytes   330 475 bytes   00:26:33.383
7               0:28:39.843     0:05:12.603     22 896 kbps     36 180 kbps     00:31:08.741    32 423 kbps     00:31:15.248    30 431 kbps     00:31:15.206    119 367 bytes   364 359 bytes   00:32:29.989
8               0:33:52.447     0:04:33.648     19 941 kbps     34 817 kbps     00:35:25.790    26 279 kbps     00:34:12.967    24 625 kbps     00:34:12.967    103 963 bytes   312 260 bytes   00:36:22.471
9               0:38:26.095     0:04:25.765     17 565 kbps     35 666 kbps     00:40:22.711    29 754 kbps     00:40:21.585    25 675 kbps     00:40:21.293    91 575 bytes    299 011 bytes   00:39:06.344
10              0:42:51.860     0:03:47.602     24 206 kbps     37 882 kbps     00:44:12.858    33 494 kbps     00:44:44.139    31 919 kbps     00:46:10.309    126 198 bytes   299 449 bytes   00:46:39.463
11              0:46:39.463     0:05:58.733     21 988 kbps     38 204 kbps     00:49:25.212    31 779 kbps     00:49:31.843    30 814 kbps     00:47:16.792    114 635 bytes   306 809 bytes   00:52:24.182
12              0:52:38.196     0:04:27.892     21 386 kbps     35 302 kbps     00:56:56.579    27 639 kbps     00:53:16.067    25 418 kbps     00:53:16.067    111 497 bytes   323 481 bytes   00:56:08.531
13              0:57:06.089     0:04:52.000     19 805 kbps     33 341 kbps     01:01:31.771    26 397 kbps     00:59:53.423    23 393 kbps     00:59:53.506    103 254 bytes   308 907 bytes   00:58:15.742
14              1:01:58.089     0:05:20.445     21 634 kbps     37 972 kbps     01:03:56.958    30 946 kbps     01:05:38.976    30 403 kbps     01:05:24.921    112 787 bytes   312 493 bytes   01:07:18.075
15              1:07:18.534     0:05:07.807     19 264 kbps     37 484 kbps     01:12:14.204    28 287 kbps     01:12:12.369    25 598 kbps     01:12:07.364    100 436 bytes   326 960 bytes   01:11:59.648
16              1:12:26.342     0:05:08.766     21 988 kbps     31 653 kbps     01:12:28.969    27 446 kbps     01:13:29.947    25 644 kbps     01:13:24.942    114 633 bytes   316 180 bytes   01:12:35.267
17              1:17:35.108     0:03:43.348     22 694 kbps     36 732 kbps     01:19:24.843    33 805 kbps     01:19:10.662    31 259 kbps     01:19:05.699    118 317 bytes   295 203 bytes   01:21:10.907
18              1:21:18.456     0:04:07.538     27 022 kbps     36 004 kbps     01:21:51.072    33 785 kbps     01:22:26.858    32 645 kbps     01:22:25.315    140 882 bytes   281 218 bytes   01:23:12.070
19              1:25:25.995     0:05:57.648     20 854 kbps     35 555 kbps     01:29:46.339    30 074 kbps     01:29:43.086    28 388 kbps     01:27:13.895    108 725 bytes   401 974 bytes   01:30:59.954
20              1:31:23.644     0:05:02.719     18 867 kbps     31 165 kbps     01:36:19.190    26 155 kbps     01:31:29.358    22 459 kbps     01:31:27.356    98 363 bytes    306 662 bytes   01:36:23.986
21              1:36:26.363     0:04:58.214     21 298 kbps     35 913 kbps     01:41:03.891    30 082 kbps     01:41:19.573    28 139 kbps     01:38:42.666    111 038 bytes   302 804 bytes   01:40:36.780
22              1:41:24.578     0:06:11.120     23 833 kbps     45 746 kbps     01:42:22.469    35 619 kbps     01:42:20.926    31 084 kbps     01:41:32.294    124 253 bytes   329 766 bytes   01:46:27.255
23              1:47:35.699     0:06:23.466     19 792 kbps     36 653 kbps     01:53:16.414    28 444 kbps     01:48:33.465    27 001 kbps     01:48:27.709    103 185 bytes   295 221 bytes   01:50:05.223
24              1:53:59.165     0:06:45.863     5 480 kbps      13 245 kbps     02:00:15.249    12 096 kbps     02:00:12.663    11 641 kbps     02:00:10.745    28 572 bytes    173 534 bytes   02:00:17.543
STREAM DIAGNOSTICS:
File            PID             Type            Codec           Language                Seconds                 Bitrate                 Bytes           Packets
----            ---             ----            -----           --------                --------------          --------------          -------------   -----
00007.M2TS      4113 (0x1011)   0x1B            AVC                                     7244,946                19 992                  18 105 368 154  98 500 259
00007.M2TS      4352 (0x1100)   0x86            DTS-HD MA       rus (Russian)           7244,946                2 159                   1 954 970 236   11 748 913
00007.M2TS      4353 (0x1101)   0x85            DTS-HD HR       eng (English)           7244,946                2 046                   1 852 917 616   10 867 552
00007.M2TS      4608 (0x1200)   0x90            PGS             rus (Russian)           7244,946                20                      17 834 743      103 523
00007.M2TS      4609 (0x1201)   0x90            PGS             ukr (Ukrainian)         7244,946                18                      16 268 214      95 053
QUICK SUMMARY:
Disc Title: IRONCLAD
Disc Size: 24 768 677 310 bytes
Protection: AACS
BD-Java: No
Playlist: 00004.MPLS
Size: 23 339 145 216 bytes
Length: 2:00:45
Total Bitrate: 25,77 Mbps
Video: MPEG-4 AVC Video / 19992 kbps / 1080p / 23,976 fps / 16:9 / High Profile 4.1
Audio: Russian / DTS-HD Master Audio / 5.1 / 48 kHz / 2159 kbps / 16-bit (DTS Core: 5.1 / 48 kHz / 1509 kbps / 16-bit)
Audio: English / DTS-HD High-Res Audio / 5.1 / 48 kHz / 2046 kbps / 16-bit (DTS Core: 5.1 / 48 kHz / 1509 kbps / 16-bit)
Subtitle: Russian / 19,693 kbps
Subtitle: Ukrainian / 17,963 kbps
********************
PLAYLIST: 00005.MPLS
********************
Код:
Total   Video
Title                                                           Codec   Length  Movie Size      Disc Size       Bitrate Bitrate Main Audio Track                          Secondary Audio Track
-----                                                           ------  ------- --------------  --------------  ------- ------- ------------------                        ---------------------
00005.MPLS                                                      AVC     0:02:30 323 997 696     24 768 677 310  17,21   15,97   DD AC3 5.1 448Kbps
Код:
DISC INFO:
Disc Title:     IRONCLAD
Disc Size:      24 768 677 310 bytes
Protection:     AACS
BD-Java:        No
BDInfo:         0.5.6
PLAYLIST REPORT:
Name:                   00005.MPLS
Length:                 0:02:30 (h:m:s)
Size:                   323 997 696 bytes
Total Bitrate:          17,21 Mbps
VIDEO:
Codec                   Bitrate             Description
-----                   -------             -----------
MPEG-4 AVC Video        15967 kbps          1080p / 23,976 fps / 16:9 / High Profile 4.1
AUDIO:
Codec                           Language        Bitrate         Description
-----                           --------        -------         -----------
Dolby Digital Audio             Russian         448 kbps        5.1 / 48 kHz / 448 kbps
FILES:
Name            Time In         Length          Size            Total Bitrate
----            -------         ------          ----            -------------
00011.M2TS      0:00:00.000     0:02:30.567     323 997 696     17 215
CHAPTERS:
Number          Time In         Length          Avg Video Rate  Max 1-Sec Rate  Max 1-Sec Time  Max 5-Sec Rate  Max 5-Sec Time  Max 10Sec Rate  Max 10Sec Time  Avg Frame Size  Max Frame Size  Max Frame Time
------          -------         ------          --------------  --------------  --------------  --------------  --------------  --------------  --------------  --------------  --------------  --------------
1               0:00:00.000     0:02:30.567     15 967 kbps     37 754 kbps     00:02:06.709    28 381 kbps     00:02:06.251    25 453 kbps     00:02:05.083    83 247 bytes    353 128 bytes   00:01:55.990
STREAM DIAGNOSTICS:
File            PID             Type            Codec           Language                Seconds                 Bitrate                 Bytes           Packets
----            ---             ----            -----           --------                --------------          --------------          -------------   -----
00011.M2TS      4113 (0x1011)   0x1B            AVC                                     150,484                 15 976                  300 520 107     1 635 349
00011.M2TS      4352 (0x1100)   0x81            AC3             rus (Russian)           150,484                 448                     8 431 360       47 050
QUICK SUMMARY:
Disc Title: IRONCLAD
Disc Size: 24 768 677 310 bytes
Protection: AACS
BD-Java: No
Playlist: 00005.MPLS
Size: 323 997 696 bytes
Length: 0:02:30
Total Bitrate: 17,21 Mbps
Video: MPEG-4 AVC Video / 15967 kbps / 1080p / 23,976 fps / 16:9 / High Profile 4.1
Audio: Russian / Dolby Digital Audio / 5.1 / 48 kHz / 448 kbps
********************
PLAYLIST: 00006.MPLS
********************
Код:
Total   Video
Title                                                           Codec   Length  Movie Size      Disc Size       Bitrate Bitrate Main Audio Track                          Secondary Audio Track
-----                                                           ------  ------- --------------  --------------  ------- ------- ------------------                        ---------------------
00006.MPLS                                                      AVC     0:02:24 348 420 096     24 768 677 310  19,28   17,95   DD AC3 5.1 448Kbps
Код:
DISC INFO:
Disc Title:     IRONCLAD
Disc Size:      24 768 677 310 bytes
Protection:     AACS
BD-Java:        No
BDInfo:         0.5.6
PLAYLIST REPORT:
Name:                   00006.MPLS
Length:                 0:02:24 (h:m:s)
Size:                   348 420 096 bytes
Total Bitrate:          19,28 Mbps
VIDEO:
Codec                   Bitrate             Description
-----                   -------             -----------
MPEG-4 AVC Video        17949 kbps          1080p / 23,976 fps / 16:9 / High Profile 4.1
AUDIO:
Codec                           Language        Bitrate         Description
-----                           --------        -------         -----------
Dolby Digital Audio             Russian         448 kbps        5.1 / 48 kHz / 448 kbps
FILES:
Name            Time In         Length          Size            Total Bitrate
----            -------         ------          ----            -------------
00012.M2TS      0:00:00.000     0:02:24.561     348 420 096     19 282
CHAPTERS:
Number          Time In         Length          Avg Video Rate  Max 1-Sec Rate  Max 1-Sec Time  Max 5-Sec Rate  Max 5-Sec Time  Max 10Sec Rate  Max 10Sec Time  Avg Frame Size  Max Frame Size  Max Frame Time
------          -------         ------          --------------  --------------  --------------  --------------  --------------  --------------  --------------  --------------  --------------  --------------
1               0:00:00.000     0:02:24.561     17 949 kbps     41 013 kbps     00:02:04.249    33 168 kbps     00:02:04.207    30 811 kbps     00:02:06.376    93 578 bytes    416 442 bytes   00:01:23.500
STREAM DIAGNOSTICS:
File            PID             Type            Codec           Language                Seconds                 Bitrate                 Bytes           Packets
----            ---             ----            -----           --------                --------------          --------------          -------------   -----
00012.M2TS      4113 (0x1011)   0x1B            AVC                                     144,478                 17 959                  324 340 862     1 764 634
00012.M2TS      4352 (0x1100)   0x81            AC3             rus (Russian)           144,478                 448                     8 096 256       45 180
QUICK SUMMARY:
Disc Title: IRONCLAD
Disc Size: 24 768 677 310 bytes
Protection: AACS
BD-Java: No
Playlist: 00006.MPLS
Size: 348 420 096 bytes
Length: 0:02:24
Total Bitrate: 19,28 Mbps
Video: MPEG-4 AVC Video / 17949 kbps / 1080p / 23,976 fps / 16:9 / High Profile 4.1
Audio: Russian / Dolby Digital Audio / 5.1 / 48 kHz / 448 kbps
********************
PLAYLIST: 00007.MPLS
********************
Код:
Total   Video
Title                                                           Codec   Length  Movie Size      Disc Size       Bitrate Bitrate Main Audio Track                          Secondary Audio Track
-----                                                           ------  ------- --------------  --------------  ------- ------- ------------------                        ---------------------
00007.MPLS                                                      AVC     0:02:23 345 280 512     24 768 677 310  19,30   17,96   DD AC3 5.1 448Kbps
Код:
DISC INFO:
Disc Title:     IRONCLAD
Disc Size:      24 768 677 310 bytes
Protection:     AACS
BD-Java:        No
BDInfo:         0.5.6
PLAYLIST REPORT:
Name:                   00007.MPLS
Length:                 0:02:23 (h:m:s)
Size:                   345 280 512 bytes
Total Bitrate:          19,30 Mbps
VIDEO:
Codec                   Bitrate             Description
-----                   -------             -----------
MPEG-4 AVC Video        17963 kbps          1080p / 23,976 fps / 16:9 / High Profile 4.1
AUDIO:
Codec                           Language        Bitrate         Description
-----                           --------        -------         -----------
Dolby Digital Audio             Russian         448 kbps        5.1 / 48 kHz / 448 kbps
FILES:
Name            Time In         Length          Size            Total Bitrate
----            -------         ------          ----            -------------
00013.M2TS      0:00:00.000     0:02:23.143     345 280 512     19 297
CHAPTERS:
Number          Time In         Length          Avg Video Rate  Max 1-Sec Rate  Max 1-Sec Time  Max 5-Sec Rate  Max 5-Sec Time  Max 10Sec Rate  Max 10Sec Time  Avg Frame Size  Max Frame Size  Max Frame Time
------          -------         ------          --------------  --------------  --------------  --------------  --------------  --------------  --------------  --------------  --------------  --------------
1               0:00:00.000     0:02:23.143     17 963 kbps     35 755 kbps     00:00:59.476    24 493 kbps     00:00:57.098    22 522 kbps     00:01:50.276    93 649 bytes    402 890 bytes   00:00:15.223
STREAM DIAGNOSTICS:
File            PID             Type            Codec           Language                Seconds                 Bitrate                 Bytes           Packets
----            ---             ----            -----           --------                --------------          --------------          -------------   -----
00013.M2TS      4113 (0x1011)   0x1B            AVC                                     143,060                 17 973                  321 402 839     1 748 777
00013.M2TS      4352 (0x1100)   0x81            AC3             rus (Russian)           143,060                 448                     8 015 616       44 730
QUICK SUMMARY:
Disc Title: IRONCLAD
Disc Size: 24 768 677 310 bytes
Protection: AACS
BD-Java: No
Playlist: 00007.MPLS
Size: 345 280 512 bytes
Length: 0:02:23
Total Bitrate: 19,30 Mbps
Video: MPEG-4 AVC Video / 17963 kbps / 1080p / 23,976 fps / 16:9 / High Profile 4.1
Audio: Russian / Dolby Digital Audio / 5.1 / 48 kHz / 448 kbps
********************
PLAYLIST: 00002.MPLS
********************
Код:
Total   Video
Title                                                           Codec   Length  Movie Size      Disc Size       Bitrate Bitrate Main Audio Track                          Secondary Audio Track
-----                                                           ------  ------- --------------  --------------  ------- ------- ------------------                        ---------------------
00002.MPLS                                                      AVC     0:00:30 93 825 024      24 768 677 310  25,00   20,67
Код:
DISC INFO:
Disc Title:     IRONCLAD
Disc Size:      24 768 677 310 bytes
Protection:     AACS
BD-Java:        No
BDInfo:         0.5.6
PLAYLIST REPORT:
Name:                   00002.MPLS
Length:                 0:00:30 (h:m:s)
Size:                   93 825 024 bytes
Total Bitrate:          25,00 Mbps
VIDEO:
Codec                   Bitrate             Description
-----                   -------             -----------
MPEG-4 AVC Video        20672 kbps          1080p / 23,976 fps / 16:9 / High Profile 4.1
FILES:
Name            Time In         Length          Size            Total Bitrate
----            -------         ------          ----            -------------
00002.M2TS      0:00:00.000     0:00:14.389     38 615 040      21 469
00003.M2TS      0:00:14.389     0:00:15.640     55 209 984      28 239
CHAPTERS:
Number          Time In         Length          Avg Video Rate  Max 1-Sec Rate  Max 1-Sec Time  Max 5-Sec Rate  Max 5-Sec Time  Max 10Sec Rate  Max 10Sec Time  Avg Frame Size  Max Frame Size  Max Frame Time
------          -------         ------          --------------  --------------  --------------  --------------  --------------  --------------  --------------  --------------  --------------  --------------
1               0:00:00.000     0:00:30.029     20 672 kbps     48 589 kbps     00:00:23.648    38 177 kbps     00:00:21.938    31 630 kbps     00:00:17.016    107 774 bytes   363 205 bytes   00:00:23.898
STREAM DIAGNOSTICS:
File            PID             Type            Codec           Language                Seconds                 Bitrate                 Bytes           Packets
----            ---             ----            -----           --------                --------------          --------------          -------------   -----
00002.M2TS      4113 (0x1011)   0x1B            AVC                                     14,223                  13 966                  24 828 847      135 146
00003.M2TS      4113 (0x1011)   0x1B            AVC                                     15,474                  27 281                  52 768 225      287 004
QUICK SUMMARY:
Disc Title: IRONCLAD
Disc Size: 24 768 677 310 bytes
Protection: AACS
BD-Java: No
Playlist: 00002.MPLS
Size: 93 825 024 bytes
Length: 0:00:30
Total Bitrate: 25,00 Mbps
Video: MPEG-4 AVC Video / 20672 kbps / 1080p / 23,976 fps / 16:9 / High Profile 4.1

Знаете ли вы, что...

- Замок Рочестер расположен в одноимённом городе в графстве Кент. Это один из первых каменных замков в Англии и самый высокий из них. Рочестер прикрывает путь к Лондону с юга и, наряду с Виндзорoм и Беркампстэдом, является одним из укреплённых узлов на дальних подступах к Лондону.
- На ранней стадии разработки проекта за ним была закреплена Меган Фокс. Позднее её заменила Кейт Мара.
- Одну из ролей в фильме должен был сыграть 86-летний на тот момент патриарх британского кино Ричард Эттенборо, который вынужден был отказаться от этого по состоянию здоровья.
- Из-за отсутствия необходимой финансовой поддержки в 2009 году бюджет фильма был существенно урезан. Это привело к практически полной замене всех уже подписавшихся на участие в проекте актёров второго плана.
- Для съёмок фильма на территории студии Dragon International Film в Уэльсе была создана максимально приближённая к реальности копия замка Рочестер.
- «Железный рыцарь» стал самым крупным и масштабным независимым проектом, когда-либо снимавшимся в Уэльсе.

Скриншоты меню

       

Скриншоты

         

_________________
Человек – это канат, натянутый между животным и сверхчеловеком, – канат над пропастью.
В человеке ценно то, что он мост, а не цель. Фридрих Ницше


Last edited by Delia on 2011-09-15 18:30; edited 1 time in total
Other forum [Profile] [PM]
Display posts from previous:    
Reply to topic

The time now is: Today 09:00

All times are GMT + 3 Hours



You cannot post new topics in this forum
You cannot reply to topics in this forum
You cannot edit your posts in this forum
You cannot delete your posts in this forum
You cannot vote in polls in this forum
You cannot attach files in this forum
You cannot download files in this forum