Today is a free download without charge Download

Котёнок с улицы Лизюкова (Вячеслав Котёночкин) [1988 г., анимационный, приключения, DVDRip-AVC] Реставрация

Reply to topic
 
Author
Message

Omen ®

Longevity: 8 years 11 months

Posts: 181086

Торрент-статистика

Post 15-Sep-2011 11:37

[Quote]

Котёнок с улицы Лизюкова

Год выпуска: 1988
Жанр: анимационный, приключения
Страна: СССР
Производство: Союзмультфильм
Продолжительность: 00:09:16
Режиссер: Вячеслав Котёночкин
-Описание: Мультфильм о необычных приключениях котёнка из Воронежа, который с лёгкого, вороньего "кар" оказался в Африке.
Персонажи озвучивали: Владимир Сошальский, Вячеслав Невинный, Маргарита Корабельникова, Ольга Аросева
- -Качество: DVDRip
Формат: MKV (H.264 + AC3)
Видео: H.264 720x576 @ 768x576 (4:3), 25fps, ~1200kbps
Аудио: AC3 1ch (mono), 48KHz, 224kbps.

Скриншоты:

       

MediaInfo:

Код:
GeneralComplete name                    : Котёнок с улицы Лизюкова.mkvFormat                           : MatroskaFile size                        : 94.5 MiBDuration                         : 9mn 16sOverall bit rate                 : 1 426 KbpsEncoded date                     : UTC 2009-09-12 19:05:22Writing application              : mkvmerge v2.9.7 ('Tenderness') built on Jul  1 2009 18:43:35Writing library                  : libebml v0.7.7 + libmatroska v0.8.1
VideoID                               : 1Format                           : AVCFormat/Info                      : Advanced Video CodecFormat profile                   : [email protected] settings, CABAC           : YesFormat settings, ReFrames        : 8 framesMuxing mode                      : Container [email protected] ID                         : V_MPEG4/ISO/AVCDuration                         : 9mn 16sBit rate                         : 1 174 KbpsNominal bit rate                 : 1 200 KbpsWidth                            : 720 pixelsHeight                           : 576 pixelsDisplay aspect ratio             : 4:3Original display aspect ratio    : 4:3Frame rate                       : 25.000 fpsStandard                         : PALResolution                       : 24 bitsColorimetry                      : 4:2:0Scan type                        : ProgressiveBits/(Pixel*Frame)               : 0.113Stream size                      : 77.8 MiB (82%)Writing library                  : x264 core 67 r1173 f6d3166Encoding settings                : cabac=1 / ref=8 / deblock=1:2:2 / analyse=0x3:0x133 / me=umh / subme=7 / psy_rd=1.0:0.0 / mixed_ref=1 / me_range=32 / chroma_me=1 / trellis=1 /8x8dct=1 / cqm=0 / deadzone=21,11 / chroma_qp_offset=-2 / threads=3 / nr=0 / decimate=1 / mbaff=0 / bframes=1 / b_pyramid=0 / b_adapt=1 / b_bias=0 / direct=3 / wpredb=1 /keyint=250 / keyint_min=25 / scenecut=40 / rc=2pass / bitrate=1200 / ratetol=1.0 / qcomp=0.60 / qpmin=10 / qpmax=51 / qpstep=4 / cplxblur=20.0 / qblur=0.5 / ip_ratio=1.40 /pb_ratio=1.30 / aq=1:1.00
AudioID                               : 2Format                           : AC-3Format/Info                      : Audio Coding 3Codec ID                         : A_AC3Duration                         : 9mn 16sBit rate mode                    : ConstantBit rate                         : 224 KbpsChannel(s)                       : 1 channelChannel positions                : CSampling rate                    : 48.0 KHzStream size                      : 14.9 MiB (16%)


Last edited by Omen on 2011-09-15 11:40; edited 1 time in total
Other forum [Profile] [PM]
Display posts from previous:    
Reply to topic

The time now is: Today 23:42

All times are GMT + 3 Hours



You cannot post new topics in this forum
You cannot reply to topics in this forum
You cannot edit your posts in this forum
You cannot delete your posts in this forum
You cannot vote in polls in this forum
You cannot attach files in this forum
You cannot download files in this forum