Today is a free download without charge Download

Темные материи. Запутанные, но правдивые / Dark Matters: Twisted But True (2012) HDTVRip [H.264/720p] [Сезон 2. Серии 1-13 из 13]

Reply to topic
 
Author
Message

UndegraundMen ®

Longevity: 7 years 7 months

Posts: 25145

Торрент-статистика

Post 25-Aug-2013 23:00

[Quote]

Темные материи. Запутанные, но правдивые / Dark Matters: Twisted But True (2012) HDTVRip [H.264/720p] [Сезон 2. Серии 1-13 из 13]- Название: Темные материи. Запутанные, но правдивые
Оригинальное название: Dark Matters: Twisted But True
Режиссер: Криспин Рис
Производство: США, Wide-Eyed Entertainment
Год выпуска: 2012
Жанр: Документально-постановочный, паранормальный, мистика, фантастика, ужасы, история, исследование
Участвуют: Хайвел Морган, Роберт Гудман, Марк Парсонс
Ведущий: Джон Ноубл
Перевод: Двуголосый закадровый, профессиональный
Продолжительность: 13 x ~ 00:41:00
Описание:
Джон Ноубл рассказывает о самых странных и спорных научных историях, включая мрачные эксперименты по пересадке головы и взрыв водородной бомбы в космосе. Рассказы о сенсационной стороне науки, включая опыты, доказывающие наличие души, оставшихся в космосе космонавтов и исследования о смертельной силе звука, о попытке контроля мышления, синдроме чужой руки и странных научных опытах, феномене зомби и поиск анестезии, приведший к сумасшествию. В каждой серии повествуется о трех случаях.

Качество видео: HDTVRip
Видеокодек: MPEG-4 AVC/H.264
Битрейт видео: ~2525 kbps
Размер кадра: 1280x720
Аудиокодек: AC3 2.0
Битрейт аудио: 192 kbps

MediaInfo

Код:
Общее
Уникальный идентификатор                 : 223485398177330837963315208913159211774 (0xA821B8D82855D133ABCC061523304AFE)
Полное имя                               :Dark_Matters_s02\DM_S02E01.mkv
Формат                                   : Matroska
Версия формата                           : Version 2
Размер файла                             : 803 Мбайт
Продолжительность                        : 40 м.
Режим общего битрейта                    : Постоянный
Общий поток                              : 2750 Кбит/сек
Дата кодирования                         : UTC 2013-05-06 14:11:48
Программа кодирования                    : mkvmerge v5.0.1 ('Es ist Sommer') built on Oct 24 2011 19:45:06
Библиотека кодирования                   : libebml v1.2.2 + libmatroska v1.3.0
Видео
Идентификатор                            : 1
Формат                                   : AVC
Формат/Информация                        : Advanced Video Codec
Профиль формата                          : [url=mailto:[email protected]][email protected][/url]
Параметр CABAC формата                   : Да
Параметр ReFrames формата                : 3 кадра
Режим смешивания                         : Header stripping
Идентификатор кодека                     : V_MPEG4/ISO/AVC
Продолжительность                        : 40 м.
Вид битрейта                             : Постоянный
Битрейт                                  : 2503 Кбит/сек
Номинальный битрейт                      : 2750 Кбит/сек / 2750 Кбит/сек
Ширина                                   : 1280 пикселей
Высота                                   : 720 пикселей
Соотношение сторон                       : 16:9
Режим частоты кадров                     : Постоянный
Частота кадров                           : 25,000 кадров/сек
Стандарт вещания                         : NTSC
Цветовое пространство                    : YUV
Субдискретизация насыщенности            : 4:2:0
Битовая глубина                          : 8 бит
Тип развёртки                            : Прогрессивная
Бит/(Пиксели*Кадры)                      : 0.109
Размер потока                            : 731 Мбайт (91%)
Библиотека кодирования                   : x264 core 114
Настройки программы                      : cabac=1 / ref=3 / deblock=1:0:0 / analyse=0x3:0x113 / me=hex / subme=7 / psy=1 / psy_rd=1.00:0.00 / mixed_ref=1 / me_range=16 / chroma_me=1 / trellis=1 / 8x8dct=1 / cqm=2 / deadzone=21,11 / fast_pskip=1 / chroma_qp_offset=-2 / threads=6 / sliced_threads=0 / slices=1 / nr=0 / decimate=1 / interlaced=0 / constrained_intra=0 / bframes=3 / b_pyramid=0 / b_adapt=1 / b_bias=0 / direct=1 / weightb=1 / open_gop=0 / weightp=2 / keyint=250 / keyint_min=25 / scenecut=40 / intra_refresh=0 / rc_lookahead=40 / rc=cbr / mbtree=1 / bitrate=2750 / ratetol=1.0 / qcomp=0.60 / qpmin=3 / qpmax=69 / qpstep=4 / vbv_maxrate=2750 / vbv_bufsize=2736 / nal_hrd=cbr / ip_ratio=1.40 / aq=1:1.00
Язык                                     : Russian
Default                                  : Да
Forced                                   : Нет
Основные цвета                           : BT.709
Характеристики трансфера                 : BT.709
Коэффициенты матрицы                     : BT.709
Аудио
Идентификатор                            : 2
Формат                                   : AC-3
Формат/Информация                        : Audio Coding 3
Расширение режима                        : CM (complete main)
Параметр Endianness формата              : Big
Режим смешивания                         : Header stripping
Идентификатор кодека                     : A_AC3
Продолжительность                        : 40 м.
Вид битрейта                             : Постоянный
Битрейт                                  : 192 Кбит/сек
Каналы                                   : 2 канала
Расположение каналов                     : Front: L R
Частота                                  : 48,0 КГц
Битовая глубина                          : 16 бит
Метод сжатия                             : С потерями
Размер потока                            : 56,1 Мбайт (7%)
Заголовок                                : Rus
Язык                                     : Russian
Default                                  : Да
Forced                                   : Нет
Общее
Уникальный идентификатор                 : 175434445548043559664561714738257073222 (0x83FB71F85A03735A81D682FF44AA1446)
Полное имя                               :Dark_Matters_s02\DM_S02E07.mkv
Формат                                   : Matroska
Версия формата                           : Version 2
Размер файла                             : 819 Мбайт
Продолжительность                        : 41 м.
Режим общего битрейта                    : Постоянный
Общий поток                              : 2777 Кбит/сек
Дата кодирования                         : UTC 2013-03-28 10:36:48
Программа кодирования                    : mkvmerge v5.0.1 ('Es ist Sommer') built on Oct 24 2011 19:45:06
Библиотека кодирования                   : libebml v1.2.2 + libmatroska v1.3.0
Видео
Идентификатор                            : 1
Формат                                   : AVC
Формат/Информация                        : Advanced Video Codec
Профиль формата                          : [url=mailto:[email protected]][email protected][/url]
Параметр CABAC формата                   : Да
Параметр ReFrames формата                : 3 кадра
Режим смешивания                         : Header stripping
Идентификатор кодека                     : V_MPEG4/ISO/AVC
Продолжительность                        : 41 м.
Вид битрейта                             : Постоянный
Битрейт                                  : 2530 Кбит/сек
Номинальный битрейт                      : 2750 Кбит/сек / 2750 Кбит/сек
Ширина                                   : 1280 пикселей
Высота                                   : 720 пикселей
Соотношение сторон                       : 16:9
Режим частоты кадров                     : Постоянный
Частота кадров                           : 25,000 кадров/сек
Стандарт вещания                         : NTSC
Цветовое пространство                    : YUV
Субдискретизация насыщенности            : 4:2:0
Битовая глубина                          : 8 бит
Тип развёртки                            : Прогрессивная
Бит/(Пиксели*Кадры)                      : 0.110
Размер потока                            : 746 Мбайт (91%)
Библиотека кодирования                   : x264 core 114
Настройки программы                      : cabac=1 / ref=3 / deblock=1:0:0 / analyse=0x3:0x113 / me=hex / subme=7 / psy=1 / psy_rd=1.00:0.00 / mixed_ref=1 / me_range=16 / chroma_me=1 / trellis=1 / 8x8dct=1 / cqm=2 / deadzone=21,11 / fast_pskip=1 / chroma_qp_offset=-2 / threads=6 / sliced_threads=0 / slices=1 / nr=0 / decimate=1 / interlaced=0 / constrained_intra=0 / bframes=3 / b_pyramid=0 / b_adapt=1 / b_bias=0 / direct=1 / weightb=1 / open_gop=0 / weightp=2 / keyint=250 / keyint_min=25 / scenecut=40 / intra_refresh=0 / rc_lookahead=40 / rc=cbr / mbtree=1 / bitrate=2750 / ratetol=1.0 / qcomp=0.60 / qpmin=3 / qpmax=69 / qpstep=4 / vbv_maxrate=2750 / vbv_bufsize=2736 / nal_hrd=cbr / ip_ratio=1.40 / aq=1:1.00
Default                                  : Да
Forced                                   : Нет
Основные цвета                           : BT.709
Характеристики трансфера                 : BT.709
Коэффициенты матрицы                     : BT.709
Аудио
Идентификатор                            : 2
Формат                                   : AC-3
Формат/Информация                        : Audio Coding 3
Расширение режима                        : CM (complete main)
Параметр Endianness формата              : Big
Режим смешивания                         : Header stripping
Идентификатор кодека                     : A_AC3
Продолжительность                        : 41 м.
Вид битрейта                             : Постоянный
Битрейт                                  : 192 Кбит/сек
Каналы                                   : 2 канала
Расположение каналов                     : Front: L R
Частота                                  : 48,0 КГц
Битовая глубина                          : 16 бит
Метод сжатия                             : С потерями
Размер потока                            : 56,7 Мбайт (7%)
Default                                  : Да
Forced                                   : Нет
Общее
Уникальный идентификатор                 : 246033295460553110395597542519206196835 (0xB9184A02BE8C5D7397625155B4863663)
Полное имя                               : Dark_Matters_s02\DM_S02E13.mkv
Формат                                   : Matroska
Версия формата                           : Version 2
Размер файла                             : 811 Мбайт
Продолжительность                        : 40 м.
Режим общего битрейта                    : Постоянный
Общий поток                              : 2769 Кбит/сек
Дата кодирования                         : UTC 2013-05-26 20:02:29
Программа кодирования                    : mkvmerge v5.0.1 ('Es ist Sommer') built on Oct 24 2011 19:45:06
Библиотека кодирования                   : libebml v1.2.2 + libmatroska v1.3.0
Видео
Идентификатор                            : 1
Формат                                   : AVC
Формат/Информация                        : Advanced Video Codec
Профиль формата                          : [url=mailto:[email protected]][email protected][/url]
Параметр CABAC формата                   : Да
Параметр ReFrames формата                : 3 кадра
Режим смешивания                         : Header stripping
Идентификатор кодека                     : V_MPEG4/ISO/AVC
Продолжительность                        : 40 м.
Вид битрейта                             : Постоянный
Битрейт                                  : 2522 Кбит/сек
Номинальный битрейт                      : 2750 Кбит/сек / 2750 Кбит/сек
Ширина                                   : 1280 пикселей
Высота                                   : 720 пикселей
Соотношение сторон                       : 16:9
Режим частоты кадров                     : Постоянный
Частота кадров                           : 25,000 кадров/сек
Стандарт вещания                         : NTSC
Цветовое пространство                    : YUV
Субдискретизация насыщенности            : 4:2:0
Битовая глубина                          : 8 бит
Тип развёртки                            : Прогрессивная
Бит/(Пиксели*Кадры)                      : 0.109
Размер потока                            : 738 Мбайт (91%)
Библиотека кодирования                   : x264 core 114
Настройки программы                      : cabac=1 / ref=3 / deblock=1:0:0 / analyse=0x3:0x113 / me=hex / subme=7 / psy=1 / psy_rd=1.00:0.00 / mixed_ref=1 / me_range=16 / chroma_me=1 / trellis=1 / 8x8dct=1 / cqm=2 / deadzone=21,11 / fast_pskip=1 / chroma_qp_offset=-2 / threads=6 / sliced_threads=0 / slices=1 / nr=0 / decimate=1 / interlaced=0 / constrained_intra=0 / bframes=3 / b_pyramid=0 / b_adapt=1 / b_bias=0 / direct=1 / weightb=1 / open_gop=0 / weightp=2 / keyint=250 / keyint_min=25 / scenecut=40 / intra_refresh=0 / rc_lookahead=40 / rc=cbr / mbtree=1 / bitrate=2750 / ratetol=1.0 / qcomp=0.60 / qpmin=3 / qpmax=69 / qpstep=4 / vbv_maxrate=2750 / vbv_bufsize=2736 / nal_hrd=cbr / ip_ratio=1.40 / aq=1:1.00
Default                                  : Да
Forced                                   : Нет
Основные цвета                           : BT.709
Характеристики трансфера                 : BT.709
Коэффициенты матрицы                     : BT.709
Аудио
Идентификатор                            : 2
Формат                                   : AC-3
Формат/Информация                        : Audio Coding 3
Расширение режима                        : CM (complete main)
Параметр Endianness формата              : Big
Режим смешивания                         : Header stripping
Идентификатор кодека                     : A_AC3
Продолжительность                        : 40 м.
Вид битрейта                             : Постоянный
Битрейт                                  : 192 Кбит/сек
Каналы                                   : 2 канала
Расположение каналов                     : Front: L R
Частота                                  : 48,0 КГц
Битовая глубина                          : 16 бит
Метод сжатия                             : С потерями
Размер потока                            : 56,2 Мбайт (7%)
Заголовок                                : Rus
Язык                                     : Russian
Default                                  : Да
Forced                                   : Нет

Содержание

01. Линдберг: Американский Нацист? / Lindbergh: American Nazi?
Песнь смерти / Suicide Song
Живой донор / Living Organ Donor
02. Приговоренный к воскрешению / Resurrection Row
Операция "Промывка мозгов" / Operation Brainwash
Бешеная рулетка / Rabid Roulette
03. Доктор Лоботомия / Dr. Lobotomy
Убитый добротой / Killed by Kindness
Вуду-терапия / Voodoo Rx
04. Жертвы амнезии / Amnesiac
Испорченный праздник / Party Poopers
Опасная радиация / Risky Radiation
05. Абсолютно ядовитый / Positively Poisonous
Гениальный химик сеет смерть во время войны.
Красавицы и мозги / Beauty and Brains
06. Творил зло / Creative Evil
Смерть из любопытства / Killed Dr Katskee
Мышиная бомба / Bat Bomb
07. Болезнь в Таскиги / Tuskegee STD
Вы видите тоже, что вижу я? / Do You See What I See?
Холодная Война - глухое дело (смерть на перевале Дятлова) / Cold War Cold Case
08. Агент Оранж / Agent Orange
Бен Франклин: Разоблачитель? / Ben Franklin: Fraud Slayer?
Цена красоты / Price of Beauty
09. Унабомбер / Unabomber
Спасение в голоде / Salvation by Starvation
Осторожно, свинец / Get the Lead Out
10. Человек-марионетка / Human Puppets
Кадавры за наличные / Cadavers for Cash
Месть Эйнштейна / Einstein's Revengee
11. Дети Павлова / Pavlov's Children
Инопланетный дождь / Alien Rain
Светящиеся девушки /Glow Girls
12. Орудие разведки / Instrument of Espionage
Исследование заикания / Stutter Study
Помешательство на стероидах / Roid Rage
13. Волшебный реактивный двигатель / Magickal Jet Propulsion
Тайна недостающего звена / Missing Link Mystery
Тифозная Мэри / Typhoid Mary
Скриншоты:          
       
Время раздачи: C 8:00 до 23:00 мск. До первых пяти скачавших.
Other forum [Profile] [PM]
Display posts from previous:    
Reply to topic

The time now is: Today 19:32

All times are GMT + 3 Hours



You cannot post new topics in this forum
You cannot reply to topics in this forum
You cannot edit your posts in this forum
You cannot delete your posts in this forum
You cannot vote in polls in this forum
You cannot attach files in this forum
You cannot download files in this forum