Today is a free download without charge Download

Sziget Festival 2010 [2013, Rock/Alternative rock/Pop/Hip hop/Electonic, HDTV 1080i]

Reply to topic
 
Author
Message

Omen ®

Longevity: 8 years 3 months

Posts: 181087

Торрент-статистика

Post 25-Aug-2013 20:30

[Quote]

Sziget Festival 2010
Жанр: Rock/Alternative rock/Pop/Hip hop/Electonic
Продолжительность: 01:29:58
Год выпуска: 2013
Описание: Eжегодный музыкальный фестиваль, один из крупнейших в Европе, проходящий на острове в Обуде, Будапешт, Венгрия.
Доп. информация: Собственная запись со спутникового канала ARTE 2013 aug24
Треклист: The Specials - Gangsters
The Specials - Concrete Jungle
Nina Hagen - Killer
Enter Shikari - Mothership
Gotan Project - La Gloria
Gotan Project - Diferente
Ska-P - Nino Soldado
Madness - Embarrassment
Peaches - Show Stopper
Peaches - Talk To Me
Thirty Seconds To Mars - Attack
Ez3kiel - The Wedding
Public Image Ltd. - Public Image
Public Image Ltd. - Open Up
Faithless - Happy
Faithless - God Is A DJ
Качество: HDTV 1080i
Контейнер: TS
Видео кодек: H.264
Аудио кодек: AC3
Видео: Mpeg4 AVC, 1920x1080, 7085 kbps, 25 fps
Аудио: AC3, 256 kbps, 48 kHz, stereo
Аудио 2: AC3, 256 kbps, 48 kHz, stereo
Аудио 3: AC3, 256 kbps, 48 kHz, stereo
Аудио 3: AC3, 192 kbps, 48 kHz, stereo

Отчёт MediaInfo / BDInfo

GeneralID : 1 (0x1)Complete name : D:\Downloads\Sziget Festival 2010.tsFormat : MPEG-TSFile size : 5.32 GiBDuration : 1h 29mnOverall bit rate mode : VariableOverall bit rate : 8 473 Kbps
VideoID : 571 (0x23B)Menu ID : 1 (0x1)Format : AVCFormat/Info : Advanced Video CodecFormat profile : [email protected] settings, CABAC : YesFormat settings, ReFrames : 3 framesCodec ID : 27Duration : 1h 29mnBit rate : 7 085 KbpsWidth : 1 920 pixelsHeight : 1 080 pixelsDisplay aspect ratio : 16:9Frame rate : 25.000 fpsStandard : ComponentColor space : YUVChroma subsampling : 4:2:0Bit depth : 8 bitsScan type : InterlacedScan order : Top Field FirstBits/(Pixel*Frame) : 0.137Stream size : 4.45 GiB (84%)Color primaries : BT.601 PALTransfer characteristics : BT.470 System B, BT.470 System GMatrix coefficients : BT.601
Audio #1ID : 572 (0x23C)Menu ID : 1 (0x1)Format : AC-3Format/Info : Audio Coding 3Mode extension : CM (complete main)Format settings, Endianness : BigCodec ID : 6Duration : 1h 29mnBit rate mode : ConstantBit rate : 256 KbpsChannel(s) : 2 channelsChannel positions : Front: L RSampling rate : 48.0 KHzBit depth : 16 bitsCompression mode : LossyStream size : 165 MiB (3%)Language : French
Audio #2ID : 573 (0x23D)Menu ID : 1 (0x1)Format : AC-3Format/Info : Audio Coding 3Mode extension : CM (complete main)Format settings, Endianness : BigCodec ID : 6Duration : 1h 29mnBit rate mode : ConstantBit rate : 256 KbpsChannel(s) : 2 channelsChannel positions : Front: L RSampling rate : 48.0 KHzBit depth : 16 bitsCompression mode : LossyStream size : 165 MiB (3%)Language : qaa
Audio #3ID : 574 (0x23E)Menu ID : 1 (0x1)Format : AC-3Format/Info : Audio Coding 3Mode extension : CM (complete main)Format settings, Endianness : BigCodec ID : 6Duration : 1h 29mnBit rate mode : ConstantBit rate : 256 KbpsChannel(s) : 2 channelsChannel positions : Front: L RSampling rate : 48.0 KHzBit depth : 16 bitsCompression mode : LossyStream size : 165 MiB (3%)Language : qad
Audio #4ID : 577 (0x241)Menu ID : 1 (0x1)Format : AC-3Format/Info : Audio Coding 3Mode extension : CM (complete main)Format settings, Endianness : BigCodec ID : 6Duration : 1h 29mnBit rate mode : ConstantBit rate : 192 KbpsChannel(s) : 2 channelsChannel positions : Front: L RSampling rate : 48.0 KHzBit depth : 16 bitsCompression mode : LossyStream size : 124 MiB (2%)Language : German

Скриншоты

Other forum [Profile] [PM]
Display posts from previous:    
Reply to topic

The time now is: Today 22:58

All times are GMT + 3 Hours



You cannot post new topics in this forum
You cannot reply to topics in this forum
You cannot edit your posts in this forum
You cannot delete your posts in this forum
You cannot vote in polls in this forum
You cannot attach files in this forum
You cannot download files in this forum