Today is a free download without charge Download

Bee Gees - One Night Only [1997, Pop Rock, BDRip 720p]

Reply to topic
 
Author
Message

Omen ®

Longevity: 8 years 3 months

Posts: 181087

Торрент-статистика

Post 25-Aug-2013 20:30

[Quote]

Bee Gees - One Night Only- Год выпуска: 1997
Жанр: Pop Rock
Продолжительность: 01:50:50
Описание: Материал этого концертного альбома записан в зале MGM Grand в Лас-Вегасе, штат Невада, 14-го ноября 1997 года. Его видеоверсия эксклюзивно демонстрировалась по каналу НВО. "One Night Only" можно назвать резюме карьеры братьев Гиббс. Bee Gees провели на эстраде 36 лет и доказывают, что могут продержаться еще. Эта троица, наверное, долговато задержалась на сцене, и фальцет Барри, может быть, слегка потерял в звучании, но любимые всеми мелодии живут и торжествуют. Bee Gees разумно решили не делать на концерте смелых творческих заявлений в виде новых песен и отдали предпочтение исполнению хитов, проверенных на прочность годами. К 90-ым группу можно считать долгожителями в музыке, так что одного только факта появления на сцене достаточно для того, чтобы сделать их еще милее и любимее собравшимся на концерт фанатам.
-
1997 was an amazing year for the Bee Gees, inductions into the Rock and Roll Hall of Fame plus Lifetime Achievement awards topped off by a 'One Night Only' concert at the MGM Grand in Las Vegas, their only live concert that year and first US concert in nearly 10 years. This DVD sees the brothers Gibb performing over 30 of their greatest hits from the 60s, 70s, 80s and 90s and features a guest appearance with Celine Dion.
-Доп. информация: Автор: FKKHD
Качество: BDRip 720p Формат: MKV
Видео: 1280x720 (16:9), 29,970 fps, x264 ~4126 kbps avg, 0.149 bit/pixel
Аудио: 48 kHz, Digital Theater Systems, 3/2 (L,C,R,l,r) + LFE ch, 1509 kbps
Трэклист:
Цитата:
01. You Should Be Dancing
02. Alone
03. Massachusetts
04. To Love Somebody
05. I've Gotta Get A Message To You
06. Words
07. Closer Than Close
08. Islands In The Stream
09. One
10. Our Love (Don't Throw It All Away)
11. Night Fever
12. More Than A Woman
13. Still Waters
14. Lonely Days
15. Morning Of My Life
16. New York Mining Disaster 1941
17. Too Much Heaven
18. I Can't See Nobody
19. Run To Me
20. And The Sun Will Shine
21. Nights On Broadway
22. How Can You Mend A Broken Heart
23. Heartbreaker
24. Guilty
25. Immortality (feat. Celine Dion)
26. Tragedy
27. I Started A Joke
28. Grease
29. Jive Talkin'
30. How Deep Is Your Love
31. Stayin' Alive
32. You Should Be Dancing

Обложка

Mediainfo

ОбщееУникальный идентификатор : 211845896199649922120362213168663431785 (0x9F60091718378A48AFDFD9A6F7470A69)Полное имя : \Bee.Gees.One.Night.Only.1997.720p.MBluRay.x264.mkvФормат : MatroskaВерсия формата : Version 2Размер файла : 4,36 ГбайтПродолжительность : 1 ч. 50 м.Общий поток : 5637 Кбит/секДата кодирования : UTC 2013-08-19 07:50:12Программа кодирования : mkvmerge v6.2.0 ('Promised Land') built on Apr 28 2013 12:22:01Библиотека кодирования : libebml v1.3.0 + libmatroska v1.4.0
ВидеоИдентификатор : 1Формат : AVCФормат/Информация : Advanced Video CodecПрофиль формата : [email protected]Параметр CABAC формата : ДаПараметр ReFrames формата : 5 кадровИдентификатор кодека : V_MPEG4/ISO/AVCПродолжительность : 1 ч. 50 м.Битрейт : 4126 Кбит/секШирина : 1280 пикселейВысота : 720 пикселейСоотношение сторон : 16:9Режим частоты кадров : ПостоянныйЧастота кадров : 29,970 кадров/секЦветовое пространство : YUVСубдискретизация насыщенности : 4:2:0Битовая глубина : 8 битТип развёртки : ПрогрессивнаяБит/(Пиксели*Кадры) : 0.149Размер потока : 3,11 Гбайт (71%)Библиотека кодирования : x264 core 135 r2345 f0c1c53Настройки программы : cabac=1 / ref=5 / deblock=1:0:0 / analyse=0x3:0x133 / me=umh / subme=7 / psy=1psy_rd=1.00:0.00 / mixed_ref=1 / me_range=16 / chroma_me=1 / trellis=1 / 8x8dct=1 / cqm=0 / deadzone=21,11 / fast_pskip=0chroma_qp_offset=-2 / threads=12 / lookahead_threads=2 / sliced_threads=0 / nr=0 / decimate=1 / interlaced=0 / bluray_compat=0constrained_intra=0 / bframes=3 / b_pyramid=2 / b_adapt=2 / b_bias=0 / direct=3 / weightb=1 / open_gop=0 / weightp=2 / keyint=250keyint_min=25 / scenecut=40 / intra_refresh=0 / rc_lookahead=50 / rc=2pass / mbtree=1 / bitrate=4126 / ratetol=1.0 / qcomp=0.60qpmin=0 / qpmax=69 / qpstep=4 / cplxblur=20.0 / qblur=0.5 / ip_ratio=1.40 / aq=1:1.00Язык : EnglishDefault : ДаForced : Нет
АудиоИдентификатор : 2Формат : DTSФормат/Информация : Digital Theater SystemsПрофиль формата : 96/24 / CoreРежим : 16Параметр Endianness формата : BigИдентификатор кодека : A_DTSПродолжительность : 1 ч. 50 м.Вид битрейта : ПостоянныйБитрейт : 1509 Кбит/секКаналы : 6 каналовРасположение каналов : Front: L C R, Side: L R, LFEЧастота : 96,0 КГц / 48,0 КГцБитовая глубина : 24 битМетод сжатия : С потерямиРазмер потока : 1,17 Гбайт (27%)Язык : EnglishDefault : ДаForced : Нет
Меню00:00:00.000 : en:00:00:00.00000:02:37.524 : en:00:02:37.52400:07:01.454 : en:00:07:01.45400:09:47.487 : en:00:09:47.48700:13:07.487 : en:00:13:07.48700:17:04.457 : en:00:17:04.45700:21:09.802 : en:00:21:09.80200:25:59.691 : en:00:25:59.69100:30:02.701 : en:00:30:02.70100:35:04.235 : en:00:35:04.23500:39:09.447 : en:00:39:09.44700:42:52.470 : en:00:42:52.47000:46:21.312 : en:00:46:21.31200:50:19.516 : en:00:50:19.51600:53:56.467 : en:00:53:56.46700:56:12.469 : en:00:56:12.46900:58:03.447 : en:00:58:03.44700:59:33.370 : en:00:59:33.37001:00:37.534 : en:01:00:37.53401:02:34.517 : en:01:02:34.51701:04:38.675 : en:01:04:38.67501:08:12.588 : en:01:08:12.58801:09:34.470 : en:01:09:34.47001:12:31.514 : en:01:12:31.51401:17:19.468 : en:01:17:19.46801:22:00.482 : en:01:22:00.48201:25:13.809 : en:01:25:13.80901:28:18.460 : en:01:28:18.46001:33:02.043 : en:01:33:02.04301:37:15.463 : en:01:37:15.46301:42:35.049 : en:01:42:35.049

Скриншоты


Other forum [Profile] [PM]
Display posts from previous:    
Reply to topic

The time now is: Today 12:48

All times are GMT + 3 Hours



You cannot post new topics in this forum
You cannot reply to topics in this forum
You cannot edit your posts in this forum
You cannot delete your posts in this forum
You cannot vote in polls in this forum
You cannot attach files in this forum
You cannot download files in this forum