Today is a free download without charge Download

Santana & McLaughlin: Live at Montreux - Invitation to Illumination (2011) [2013, Latin Rock, Blues Rock, Jazz Fusion, BDRip 720p]

Reply to topic
 
Author
Message

Omen ®

Longevity: 8 years 3 months

Posts: 181087

Торрент-статистика

Post 25-Aug-2013 16:28

[Quote]

Santana & McLaughlin: Live at Montreux - Invitation to Illumination (2011)- Жанр: Latin Rock, Blues Rock, Jazz Fusion
Продолжительность: 02:15:54
Год выпуска: 2013-Описание: On July 1st, 2011, Montreux hosted the reunion of two master guitarists, Carlos Santana and John McLaughlin, with their Invitation To Illumination concert. Both musicians have been regulars at Montreux across the years but this was the first time they headlined their own concert together. The show features most of the tracks from their classic 1973 album Love Devotion Surrender mixed in with a wealth of other material. The evening was a showcase of supreme musical virtuosity and spirituality and typified the approach of these two great artists. It is certainly a performance not to be missed.
Треклист:
01. Echoes of Angels/Introductions
02. The Life Divine
03. Medley: Peace on Earth/A Hard Rain's A Gonna Fall/Stairway to Heaven/Our Prayer/SOCC
04. Right Off
05. Vuelta Abajo
06. Vashkar
07. The Creator Has a Master Plan
08. Naima
09. Lotus Land Op. 47, No. 1
10. Downstairs
11. Venus/Upper Egypt
12. Let Us Go Into the House of the Lord
13. Black Satin
14. Cindy Blackman Santana Drum Solo
15. A Love Supreme
16. Shake It Up and Go-Доп. информация:
Carlos Santana (Lead Guitar & Vocals), John McLaughlin (Lead Guitar & Vocals), Cindy Blackman Santana (Drums), Dennis Chambers (Drums), David K. Mathews (Keyboards), Tommy Anthony (Guitar & Vocals); Raul Rekow (Congas, Percussion & Vocals), Etienne M'Bappé (Bass), Benny Rietveld (Bass), Tony Lindsay (Vocals), Andy Vargas (Vocals)-Качество: BDRip 720p
Контейнер: MKV
Видео кодек: H.264
Аудио кодек: DTS, AC3
Видео: MPEG-4 AVC Video / 5526 Kbps / 1280x716 / 29,970 fps / 16:9 /
Аудио #1: DTS / 5.1 / 48.0 kHz / 1509 kbps / 24-bit
Аудио #2: AC3 / 2.0 / 48.0 kHz / 640 kbps / 16-bit

x264 log

[Information] [24.08.2013 20:17:59] Standard error stream
-[Information] [24.08.2013 20:18:03] avs [info]: 1280x716p 1:1 @ 30000/1001 fps (cfr)
-[Information] [24.08.2013 20:18:03] x264 [info]: using SAR=1/1
-[Information] [24.08.2013 20:18:03] x264 [info]: using cpu capabilities: MMX2 SSE2Fast SSSE3 SSE4.2 AVX
-[Information] [24.08.2013 20:18:03] x264 [info]: profile High, level 4.1
-[Information] [25.08.2013 7:33:52] x264 [info]: frame I:2035 Avg QP:16.34 size:145106
-[Information] [25.08.2013 7:33:52] x264 [info]: frame P:53288 Avg QP:19.17 size: 50750
-[Information] [25.08.2013 7:33:52] x264 [info]: frame B:189054 Avg QP:21.34 size: 14748
-[Information] [25.08.2013 7:33:52] x264 [info]: consecutive B-frames: 1.6% 1.4% 8.5% 25.7% 19.1% 41.7% 1.9%
-[Information] [25.08.2013 7:33:52] x264 [info]: mb I I16..4: 6.1% 71.0% 22.9%
-[Information] [25.08.2013 7:33:52] x264 [info]: mb P I16..4: 2.3% 12.5% 1.9% P16..4: 44.7% 19.5% 15.4% 0.8% 0.3% skip: 2.7%
-[Information] [25.08.2013 7:33:52] x264 [info]: mb B I16..4: 0.2% 1.1% 0.2% B16..8: 42.9% 10.4% 2.6% direct: 8.5% skip:34.2% L0:40.3% L1:43.8% BI:15.9%
-[Information] [25.08.2013 7:33:52] x264 [info]: 8x8 transform intra:74.5% inter:67.6%
-[Information] [25.08.2013 7:33:52] x264 [info]: direct mvs spatial:100.0% temporal:0.0%
-[Information] [25.08.2013 7:33:52] x264 [info]: coded y,uvDC,uvAC intra: 82.5% 91.6% 73.3% inter: 26.3% 37.2% 8.6%
-[Information] [25.08.2013 7:33:52] x264 [info]: i16 v,h,dc,p: 37% 13% 11% 39%
-[Information] [25.08.2013 7:33:52] x264 [info]: i8 v,h,dc,ddl,ddr,vr,hd,vl,hu: 10% 10% 5% 9% 14% 14% 14% 11% 14%
-[Information] [25.08.2013 7:33:52] x264 [info]: i4 v,h,dc,ddl,ddr,vr,hd,vl,hu: 12% 9% 3% 9% 15% 14% 14% 11% 13%
-[Information] [25.08.2013 7:33:52] x264 [info]: i8c dc,h,v,p: 35% 22% 19% 23%
-[Information] [25.08.2013 7:33:52] x264 [info]: Weighted P-Frames: Y:10.5% UV:8.1%
-[Information] [25.08.2013 7:33:52] x264 [info]: ref P L0: 45.0% 11.2% 19.3% 7.0% 5.7% 3.9% 3.5% 2.0% 2.1% 0.4% 0.0%
-[Information] [25.08.2013 7:33:52] x264 [info]: ref B L0: 80.3% 9.9% 4.1% 2.2% 1.4% 1.2% 0.7% 0.3%
-[Information] [25.08.2013 7:33:52] x264 [info]: ref B L1: 95.0% 5.0%
-[Information] [25.08.2013 7:33:52] x264 [info]: kb/s:5678.59
-[Information] [25.08.2013 7:33:52] encoded 244377 frames, 6.03 fps, 5678.59 kb/s

Mediainfo

Код:
General
Unique ID                                : 225672990248088870764366080143618048353 (0xA9C70975EFC797D0A562E67131DD8161)
Complete name                            : E:\Santana McLaughlin Live at Montreux 2011 BDRip 720p DTS.mkv
Format                                   : Matroska
Format version                           : Version 4 / Version 2
File size                                : 7.43 GiB
Duration                                 : 2h 15mn
Overall bit rate                         : 7 831 Kbps
Encoded date                             : UTC 2013-08-25 10:22:18
Writing application                      : mkvmerge v6.1.0 ('Old Devil') built on Mar  2 2013 14:32:37
Writing library                          : libebml v1.3.0 + libmatroska v1.4.0
Video
ID                                       : 1
Format                                   : AVC
Format/Info                              : Advanced Video Codec
Format profile                           : [email protected]
Format settings, CABAC                   : Yes
Format settings, ReFrames                : 9 frames
Codec ID                                 : V_MPEG4/ISO/AVC
Duration                                 : 2h 15mn
Bit rate                                 : 5 526 Kbps
Width                                    : 1 280 pixels
Height                                   : 716 pixels
Display aspect ratio                     : 16:9
Frame rate mode                          : Constant
Frame rate                               : 29.970 fps
Color space                              : YUV
Chroma subsampling                       : 4:2:0
Bit depth                                : 8 bits
Scan type                                : Progressive
Bits/(Pixel*Frame)                       : 0.201
Stream size                              : 5.25 GiB (71%)
Writing library                          : x264 core 133 r2334 a3ac64b
Encoding settings                        : cabac=1 / ref=9 / deblock=1:-3:-3 / analyse=0x3:0x133 / me=umh / subme=9 / psy=1 / psy_rd=1.00:0.15 / mixed_ref=1 / me_range=24 / chroma_me=1 / trellis=2 / 8x8dct=1 / cqm=0 / deadzone=21,11 / fast_pskip=0 / chroma_qp_offset=-3 / threads=12 / lookahead_threads=1 / sliced_threads=0 / nr=0 / decimate=1 / interlaced=0 / bluray_compat=0 / constrained_intra=0 / bframes=6 / b_pyramid=2 / b_adapt=2 / b_bias=0 / direct=3 / weightb=1 / open_gop=0 / weightp=2 / keyint=300 / keyint_min=29 / scenecut=40 / intra_refresh=0 / rc_lookahead=60 / rc=crf / mbtree=1 / crf=18.0 / qcomp=0.60 / qpmin=0 / qpmax=69 / qpstep=4 / vbv_maxrate=62500 / vbv_bufsize=78125 / crf_max=0.0 / nal_hrd=none / ip_ratio=1.40 / aq=1:1.00
Language                                 : English
Default                                  : Yes
Forced                                   : No
Color primaries                          : BT.709
Transfer characteristics                 : BT.709
Matrix coefficients                      : BT.709
Audio #1
ID                                       : 2
Format                                   : DTS
Format/Info                              : Digital Theater Systems
Format profile                           : 96/24 / Core
Mode                                     : 16
Format settings, Endianness              : Big
Codec ID                                 : A_DTS
Duration                                 : 2h 15mn
Bit rate mode                            : Constant
Bit rate                                 : 1 509 Kbps
Channel(s)                               : 6 channels
Channel positions                        : Front: L C R, Side: L R, LFE
Sampling rate                            : 96.0 KHz / 48.0 KHz
Bit depth                                : 24 bits
Compression mode                         : Lossy
Stream size                              : 1.43 GiB (19%)
Title                                    : DTS 5.1 1509 Kbps
Language                                 : English
Default                                  : Yes
Forced                                   : No
Audio #2
ID                                       : 3
Format                                   : AC-3
Format/Info                              : Audio Coding 3
Mode extension                           : CM (complete main)
Format settings, Endianness              : Big
Codec ID                                 : A_AC3
Duration                                 : 2h 15mn
Bit rate mode                            : Constant
Bit rate                                 : 640 Kbps
Channel(s)                               : 2 channels
Channel positions                        : Front: L R
Sampling rate                            : 48.0 KHz
Bit depth                                : 16 bits
Compression mode                         : Lossy
Stream size                              : 622 MiB (8%)
Title                                    : AC3 2.0 640 Kbps
Language                                 : English
Default                                  : No
Forced                                   : No
Menu
00:00:00.000                             : en:Echoes of Angels/Introductions
00:05:29.763                             : en:The Life Divine
00:12:35.321                             : en:Medley: Peace on Earth/A Hard Rain's A Gonna Fall/Stairway to Heaven/Our Prayer/SOCC
00:21:27.920                             : en:Right Off
00:32:48.500                             : en:Vuelta Abajo
00:39:09.881                             : en:Vashkar
00:46:14.071                             : en:The Creator Has a Master Plan
00:59:15.919                             : en:Naima
01:02:38.955                             : en:Lotus Land Op. 47, No. 1
01:08:12.155                             : en:Downstairs
01:15:09.772                             : en:Venus/Upper Egypt
01:25:22.718                             : en:Let Us Go Into the House of the Lord
01:38:29.403                             : en:Black Satin
01:47:47.194                             : en:Cindy Blackman Santana Drum Solo
01:50:14.641                             : en:A Love Supreme
01:59:58.425                             : en:Shake It Up and Go

Скриншоты

Other forum [Profile] [PM]
Display posts from previous:    
Reply to topic

The time now is: Today 06:54

All times are GMT + 3 Hours



You cannot post new topics in this forum
You cannot reply to topics in this forum
You cannot edit your posts in this forum
You cannot delete your posts in this forum
You cannot vote in polls in this forum
You cannot attach files in this forum
You cannot download files in this forum