Today is a free download without charge Download

Ловушка / The Resident (Антти Джокинен / Antti Jokinen) [2010, Великобритания, США, ужасы, триллер, драма, DVD9] R5, MVO Sub rus + original eng

Reply to topic
 
Author
Message

Varius ®

Gender:

Longevity: 9 years 7 months

Posts: 2416

Location: Hell

Торрент-статистика

Post 15-Sep-2011 07:55

[Quote]

Ловушка / The Resident
Страна: Великобритания, США
Студия: Hammer Film Productions
Жанр: ужасы, триллер, драма
Год выпуска: 2010
Продолжительность: 01:27:20
Перевод: Профессиональный (многоголосый закадровый) [лицензия]
Cубтитры: русские
Оригинальная аудиодорожка: английский
Режиссер: Антти Джокинен / Antti Jokinen
В ролях: Джеффри Дин Морган, Хилари Суэнк, Кристофер Ли, Ли Пейс, Майкл Масси, Онжаню Эллис, Кейша Олсен, Пенни Бальфур, Александрия Морроу, Сэнди К Шелби и др.
Описание: Миллионы одиноких женщин снимают квартиры. Они не задумываются о том, кто жил там до них. Они не знают хозяев. Им не приходит в голову сменить замок.Расставшись с мужем, молодая врач Джульет Дермер начинает новую жизнь в просторном съемном лофте. Недорогая квартира оказывается настолько хороша, что Джулия не может поверить своему счастью. Вскоре, однако, она начинает подозревать, что не одна в собственном доме. С ужасом она осознает, что симпатичный домовладелец Макс избрал ее для своей маниакальной игры в кошки-мышки.
Бонусы: Смотрите на DVD
Меню: русское, анимированное, озвученное
Тип релиза: DVD9
Контейнер: DVD-Video
Видео: PAL 16:9 (720x576), 7 432 Kbps
Аудио: Russian (Dolby AC3, 6 ch), 256 Kbps
Аудио 2: English (Dolby AC3, 6 ch), 256 Kbps

Релиз группы:

MediaInfo

General
Complete name : D:\Video\Lovushka.2010.P.DVD.ELEKTRI4KA\VIDEO_TS\VTS_03_1.VOB
Format : MPEG-PS
File size : 1 024 MiB
Duration : 17mn 39s
Overall bit rate : 8 105 Kbps
Video
ID : 224 (0xE0)
Format : MPEG Video
Format version : Version 2
Format profile : [email protected]
Format settings, BVOP : Yes
Format settings, Matrix : Custom
Format settings, GOP : M=3, N=15
Duration : 17mn 39s
Bit rate mode : Variable
Bit rate : 7 432 Kbps
Maximum bit rate : 9 000 Kbps
Width : 720 pixels
Height : 576 pixels
Display aspect ratio : 16:9
Frame rate : 25.000 fps
Standard : PAL
Color space : YUV
Chroma subsampling : 4:2:0
Bit depth : 8 bits
Scan type : Interlaced
Scan order : Top Field First
Compression mode : Lossy
Bits/(Pixel*Frame) : 0.717
Stream size : 939 MiB (92%)
Audio #1
ID : 189 (0xBD)-128 (0x80)
Format : AC-3
Format/Info : Audio Coding 3
Mode extension : CM (complete main)
Muxing mode : DVD-Video
Duration : 17mn 39s
Bit rate mode : Constant
Bit rate : 256 Kbps
Channel(s) : 6 channels
Channel positions : Front: L C R, Side: L R, LFE
Sampling rate : 48.0 KHz
Bit depth : 16 bits
Compression mode : Lossy
Stream size : 32.3 MiB (3%)
Audio #2
ID : 189 (0xBD)-129 (0x81)
Format : AC-3
Format/Info : Audio Coding 3
Mode extension : CM (complete main)
Muxing mode : DVD-Video
Duration : 17mn 39s
Bit rate mode : Constant
Bit rate : 256 Kbps
Channel(s) : 6 channels
Channel positions : Front: L C R, Side: L R, LFE
Sampling rate : 48.0 KHz
Bit depth : 16 bits
Compression mode : Lossy
Stream size : 32.3 MiB (3%)
Menu

DVDInfo

Title: Bob
Size: 5.66 Gb ( 5 932 038 KBytes ) - DVD-9
Enabled regions: 1, 2, 3, 4, 5, 6, 7, 8
VTS_01 :
Play Length: 00:00:10
Video: PAL 16:9 (720x576) VBR, Auto Pan&Scan, Auto Letterboxed
VTS_02 :
Play Length: 00:00:06
Video: PAL 16:9 (720x576) VBR, Auto Pan&Scan, Auto Letterboxed
VTS_03 :
Play Length: 01:27:20
Video: PAL 16:9 (720x576) VBR, Auto Pan&Scan, Auto Letterboxed
Audio:
Russian (Dolby AC3, 6 ch)
English (Dolby AC3, 6 ch)
Subtitles:
Not specified
Not specified
VTS_04 :
Play Length: 00:02:29
Video: PAL 16:9 (720x576) VBR, Auto Pan&Scan, Auto Letterboxed
Audio:
Not specified (Dolby AC3, 2 ch)
VTS_05 :
Play Length: 00:02:02
Video: PAL 16:9 (720x576) VBR, Auto Pan&Scan, Auto Letterboxed
Audio:
Not specified (Dolby AC3, 2 ch)
VTS_06 :
Play Length: 00:02:12
Video: PAL 16:9 (720x576) VBR, Auto Pan&Scan, Auto Letterboxed
Audio:
Not specified (Dolby AC3, 2 ch)
VTS_07 :
Play Length: 00:01:58
Video: PAL 16:9 (720x576) VBR, Auto Pan&Scan, Auto Letterboxed
Audio:
Not specified (Dolby AC3, 2 ch)
VTS_08 :
Play Length: 00:02:22
Video: PAL 16:9 (720x576) VBR, Auto Pan&Scan, Auto Letterboxed
Audio:
Not specified (Dolby AC3, 2 ch)
VTS_09 :
Play Length: 00:02:00
Video: PAL 16:9 (720x576) VBR, Auto Pan&Scan, Auto Letterboxed
Audio:
Not specified (Dolby AC3, 2 ch)
VTS_10 :
Play Length: 00:00:20
Video: PAL 16:9 (720x576) VBR, Auto Pan&Scan, Auto Letterboxed
Audio:
Not specified (Dolby AC3, 2 ch)
Not specified (Dolby AC3, 2 ch)
Menu Video:
PAL 16:9 (720x576) VBR
Auto Pan&Scan, Auto Letterboxed
Menu Russian Language Unit :
Root Menu

Скриншоты меню

       

Скриншоты

           

_________________

Создавая "Новую папку", не считайте себя Создателем - это право Вам дано Админом




Last edited by Varius on 2011-09-15 07:56; edited 1 time in total
Other forum [Profile] [PM]
Display posts from previous:    
Reply to topic

The time now is: Today 09:30

All times are GMT + 3 Hours



You cannot post new topics in this forum
You cannot reply to topics in this forum
You cannot edit your posts in this forum
You cannot delete your posts in this forum
You cannot vote in polls in this forum
You cannot attach files in this forum
You cannot download files in this forum