Today is a free download without charge Download

Santana & McLaughlin: Live at Montreux - Invitation to Illumination (2011) [2013, Latin Rock, Blues Rock, Jazz Fusion, Blu-Ray]

Reply to topic
 
Author
Message

Omen ®

Longevity: 8 years 3 months

Posts: 181087

Торрент-статистика

Post 24-Aug-2013 21:50

[Quote]

Santana & McLaughlin: Live at Montreux - Invitation to Illumination (2011)- Жанр: Latin Rock, Blues Rock, Jazz Fusion
Продолжительность: 02:15:54
Год выпуска: 2013-Описание: On July 1st, 2011, Montreux hosted the reunion of two master guitarists, Carlos Santana and John McLaughlin, with their Invitation To Illumination concert. Both musicians have been regulars at Montreux across the years but this was the first time they headlined their own concert together. The show features most of the tracks from their classic 1973 album Love Devotion Surrender mixed in with a wealth of other material. The evening was a showcase of supreme musical virtuosity and spirituality and typified the approach of these two great artists. It is certainly a performance not to be missed.
Треклист:
01. Echoes of Angels/Introductions
02. The Life Divine
03. Medley: Peace on Earth/A Hard Rain's A Gonna Fall/Stairway to Heaven/Our Prayer/SOCC
04. Right Off
05. Vuelta Abajo
06. Vashkar
07. The Creator Has a Master Plan
08. Naima
09. Lotus Land Op. 47, No. 1
10. Downstairs
11. Venus/Upper Egypt
12. Let Us Go Into the House of the Lord
13. Black Satin
14. Cindy Blackman Santana Drum Solo
15. A Love Supreme
16. Shake It Up and Go-Доп. информация:
Carlos Santana (Lead Guitar & Vocals), John McLaughlin (Lead Guitar & Vocals), Cindy Blackman Santana (Drums), Dennis Chambers (Drums), David K. Mathews (Keyboards), Tommy Anthony (Guitar & Vocals); Raul Rekow (Congas, Percussion & Vocals), Etienne M'Bappé (Bass), Benny Rietveld (Bass), Tony Lindsay (Vocals), Andy Vargas (Vocals)-За предоставленный материал большое спасибо Shadowman.-Качество: Blu-ray
Контейнер: BDMV
Видео кодек: H.264
Аудио кодек: DTS-HD, PCM
Видео: MPEG-4 AVC Video / 28963 kbps / 1080i / 29,970 fps / 16:9 /
Аудио #1: DTS-HD Master Audio / 5.1 / 96 kHz / 8033 kbps / 24-bit (DTS Core: 6.1 / 48 kHz / 1509 kbps / 24-bit)
Аудио #2: LPCM Audio / 2.0 / 96 kHz / 4608 kbps / 24-bit

BDInfo

Disc Title: Santana McLaughlin Live at Montreux 2011 1080i AVC Shadowman
Disc Size: 80 889 858 402 bytes
Protection: AACS
BD-Java: No
BDInfo: 0.5.8
Notes:
BDINFO HOME:
Cinema Squid
http://www.cinemasquid.com/blu-ray/tools/bdinfo
INCLUDES FORUMS REPORT FOR:
AVS Forum Blu-ray Audio and Video Specifications Thread
http://www.avsforum.com/avs-vb/showthread.php?t=1155731
********************
PLAYLIST: 00000.MPLS
********************
Код:
Total   Video
Title                                                           Codec   Length  Movie Size      Disc Size       Bitrate Bitrate Main Audio Track                          Secondary Audio Track
-----                                                           ------  ------- --------------  --------------  ------- ------- ------------------                        ---------------------
00000.MPLS                                                      AVC     2:15:54 44 681 852 928  80 889 858 402  43,84   28,96   LPCM 2.0 4608Kbps (96kHz/24-bit)          DTS-HD Master 5.1 8033Kbps (96kHz/24-bit)
Код:
DISC INFO:
Disc Title:     Santana McLaughlin Live at Montreux 2011 1080i AVC Shadowman
Disc Size:      80 889 858 402 bytes
Protection:     AACS
BD-Java:        No
BDInfo:         0.5.8
PLAYLIST REPORT:
Name:                   00000.MPLS
Length:                 2:15:54.045 (h:m:s.ms)
Size:                   44 681 852 928 bytes
Total Bitrate:          43,84 Mbps
VIDEO:
Codec                   Bitrate             Description
-----                   -------             -----------
MPEG-4 AVC Video        28963 kbps          1080i / 29,970 fps / 16:9 / High Profile 4.1
AUDIO:
Codec                           Language        Bitrate         Description
-----                           --------        -------         -----------
LPCM Audio                      English         4608 kbps       2.0 / 96 kHz / 4608 kbps / 24-bit
DTS-HD Master Audio             English         8033 kbps       5.1 / 96 kHz / 8033 kbps / 24-bit (DTS Core: 6.1 / 48 kHz / 1509 kbps / 24-bit)
FILES:
Name            Time In         Length          Size            Total Bitrate
----            -------         ------          ----            -------------
00001.M2TS      0:00:00.000     2:15:54.045     44 681 852 928  43 838
CHAPTERS:
Number          Time In         Length          Avg Video Rate  Max 1-Sec Rate  Max 1-Sec Time  Max 5-Sec Rate  Max 5-Sec Time  Max 10Sec Rate  Max 10Sec Time  Avg Frame Size  Max Frame Size  Max Frame Time
------          -------         ------          --------------  --------------  --------------  --------------  --------------  --------------  --------------  --------------  --------------  --------------
1               0:00:00.000     0:05:29.762     21 879 kbps     37 306 kbps     00:05:27.026    29 995 kbps     00:04:03.643    27 445 kbps     00:05:19.152    91 242 bytes    435 640 bytes   00:03:02.982
2               0:05:29.762     0:07:05.558     29 043 kbps     39 189 kbps     00:09:57.797    36 698 kbps     00:07:39.425    34 194 kbps     00:11:18.778    121 132 bytes   456 511 bytes   00:08:44.790
3               0:12:35.321     0:08:52.598     29 731 kbps     38 881 kbps     00:20:19.451    35 303 kbps     00:20:36.235    33 876 kbps     00:13:05.217    124 005 bytes   468 331 bytes   00:20:20.385
4               0:21:27.919     0:11:20.579     29 773 kbps     39 499 kbps     00:25:38.136    35 931 kbps     00:25:59.491    34 455 kbps     00:25:32.364    124 180 bytes   443 770 bytes   00:25:51.349
5               0:32:48.499     0:06:21.381     29 888 kbps     38 943 kbps     00:34:55.993    34 515 kbps     00:36:57.215    33 360 kbps     00:36:57.481    124 660 bytes   424 756 bytes   00:36:53.544
6               0:39:09.880     0:07:04.190     30 411 kbps     38 925 kbps     00:40:06.971    35 231 kbps     00:41:06.197    33 749 kbps     00:39:36.107    126 841 bytes   438 608 bytes   00:45:12.109
7               0:46:14.071     0:13:01.847     28 096 kbps     38 435 kbps     00:46:40.964    36 599 kbps     00:48:31.675    36 104 kbps     00:48:28.305    117 182 bytes   430 737 bytes   00:47:28.478
8               0:59:15.919     0:03:23.036     26 971 kbps     36 835 kbps     01:01:08.264    34 061 kbps     01:01:04.260    33 224 kbps     01:01:00.023    112 490 bytes   403 623 bytes   00:59:19.322
9               1:02:38.955     0:05:33.199     29 410 kbps     38 600 kbps     01:07:15.364    36 054 kbps     01:05:21.450    34 947 kbps     01:05:18.781    122 665 bytes   438 615 bytes   01:03:02.078
10              1:08:12.154     0:06:57.617     30 452 kbps     37 619 kbps     01:10:32.561    35 233 kbps     01:09:53.556    34 692 kbps     01:13:17.693    127 009 bytes   455 906 bytes   01:08:48.424
11              1:15:09.771     0:10:12.945     29 939 kbps     38 789 kbps     01:18:52.327    36 015 kbps     01:21:56.177    35 029 kbps     01:21:51.940    124 871 bytes   422 289 bytes   01:21:42.397
12              1:25:22.717     0:13:06.685     28 869 kbps     38 918 kbps     01:28:32.540    35 907 kbps     01:27:56.070    35 468 kbps     01:27:53.735    120 409 bytes   442 544 bytes   01:33:03.945
13              1:38:29.403     0:09:17.790     30 751 kbps     37 852 kbps     01:44:12.613    34 976 kbps     01:44:52.452    34 536 kbps     01:44:53.120    128 257 bytes   427 641 bytes   01:38:39.647
14              1:47:47.194     0:02:27.447     31 287 kbps     36 976 kbps     01:49:29.329    34 990 kbps     01:49:06.640    33 403 kbps     01:49:01.368    130 494 bytes   389 012 bytes   01:49:58.024
15              1:50:14.641     0:09:43.783     27 482 kbps     37 956 kbps     01:57:04.617    35 715 kbps     01:57:03.583    34 445 kbps     01:50:37.197    114 623 bytes   412 151 bytes   01:56:51.471
16              1:59:58.424     0:15:55.621     28 634 kbps     38 895 kbps     02:09:55.888    35 425 kbps     02:12:49.528    35 025 kbps     02:01:06.892    119 432 bytes   421 010 bytes   02:11:37.990
STREAM DIAGNOSTICS:
File            PID             Type            Codec           Language                Seconds                 Bitrate                 Bytes           Packets
----            ---             ----            -----           --------                --------------          --------------          -------------   -----
00001.M2TS      4113 (0x1011)   0x1B            AVC                                     8153,979                28 963                  29 520 647 222  160 581 549
00001.M2TS      4352 (0x1100)   0x80            LPCM            eng (English)           8153,979                4 614                   4 703 256 040   26 092 960
00001.M2TS      4353 (0x1101)   0x86            DTS-HD MA       eng (English)           8153,979                8 033                   8 187 895 996   45 770 282
QUICK SUMMARY:
Disc Title: Santana McLaughlin Live at Montreux 2011 1080i AVC Shadowman
Disc Size: 80 889 858 402 bytes
Protection: AACS
BD-Java: No
Playlist: 00000.MPLS
Size: 44 681 852 928 bytes
Length: 2:15:54.045
Total Bitrate: 43,84 Mbps
Video: MPEG-4 AVC Video / 28963 kbps / 1080i / 29,970 fps / 16:9 / High Profile 4.1
Audio: English / LPCM Audio / 2.0 / 96 kHz / 4608 kbps / 24-bit
Audio: English / DTS-HD Master Audio / 5.1 / 96 kHz / 8033 kbps / 24-bit (DTS Core: 6.1 / 48 kHz / 1509 kbps / 24-bit)
********************
PLAYLIST: 00004.MPLS
********************
Код:
Total   Video
Title                                                           Codec   Length  Movie Size      Disc Size       Bitrate Bitrate Main Audio Track                          Secondary Audio Track
-----                                                           ------  ------- --------------  --------------  ------- ------- ------------------                        ---------------------
00004.MPLS                                                      AVC     0:00:21 9 443 328       80 889 858 402  3,59    3,33
Код:
DISC INFO:
Disc Title:     Santana McLaughlin Live at Montreux 2011 1080i AVC Shadowman
Disc Size:      80 889 858 402 bytes
Protection:     AACS
BD-Java:        No
BDInfo:         0.5.8
PLAYLIST REPORT:
Name:                   00004.MPLS
Length:                 0:00:21.020 (h:m:s.ms)
Size:                   9 443 328 bytes
Total Bitrate:          3,59 Mbps
VIDEO:
Codec                   Bitrate             Description
-----                   -------             -----------
MPEG-4 AVC Video        3327 kbps           1080i / 29,970 fps / 16:9 / High Profile 4.1
FILES:
Name            Time In         Length          Size            Total Bitrate
----            -------         ------          ----            -------------
00005.M2TS      0:00:00.000     0:00:10.510     4 841 472       3 685
00006.M2TS      0:00:10.510     0:00:10.510     4 601 856       3 503
CHAPTERS:
Number          Time In         Length          Avg Video Rate  Max 1-Sec Rate  Max 1-Sec Time  Max 5-Sec Rate  Max 5-Sec Time  Max 10Sec Rate  Max 10Sec Time  Avg Frame Size  Max Frame Size  Max Frame Time
------          -------         ------          --------------  --------------  --------------  --------------  --------------  --------------  --------------  --------------  --------------  --------------
1               0:00:00.000     0:00:21.020     3 327 kbps      6 302 kbps      00:00:09.509    3 947 kbps      00:00:06.840    3 597 kbps      00:00:01.701    13 875 bytes    200 073 bytes   00:00:18.918
STREAM DIAGNOSTICS:
File            PID             Type            Codec           Language                Seconds                 Bitrate                 Bytes           Packets
----            ---             ----            -----           --------                --------------          --------------          -------------   -----
00005.M2TS      4113 (0x1011)   0x1B            AVC                                     10,410                  3 448                   4 486 469       24 858
00006.M2TS      4113 (0x1011)   0x1B            AVC                                     10,410                  3 270                   4 254 964       23 596
QUICK SUMMARY:
Disc Title: Santana McLaughlin Live at Montreux 2011 1080i AVC Shadowman
Disc Size: 80 889 858 402 bytes
Protection: AACS
BD-Java: No
Playlist: 00004.MPLS
Size: 9 443 328 bytes
Length: 0:00:21.020
Total Bitrate: 3,59 Mbps
Video: MPEG-4 AVC Video / 3327 kbps / 1080i / 29,970 fps / 16:9 / High Profile 4.1
********************
PLAYLIST: 00003.MPLS
********************
Код:
Total   Video
Title                                                           Codec   Length  Movie Size      Disc Size       Bitrate Bitrate Main Audio Track                          Secondary Audio Track
-----                                                           ------  ------- --------------  --------------  ------- ------- ------------------                        ---------------------
00003.MPLS                                                      AVC     0:00:20 45 864 960      80 889 858 402  18,30   15,21   DTS-HD Master 5.1 1960Kbps (48kHz/16-bit)
Код:
DISC INFO:
Disc Title:     Santana McLaughlin Live at Montreux 2011 1080i AVC Shadowman
Disc Size:      80 889 858 402 bytes
Protection:     AACS
BD-Java:        No
BDInfo:         0.5.8
PLAYLIST REPORT:
Name:                   00003.MPLS
Length:                 0:00:20.053 (h:m:s.ms)
Size:                   45 864 960 bytes
Total Bitrate:          18,30 Mbps
VIDEO:
Codec                   Bitrate             Description
-----                   -------             -----------
MPEG-4 AVC Video        15214 kbps          1080i / 29,970 fps / 16:9 / High Profile 4.1
AUDIO:
Codec                           Language        Bitrate         Description
-----                           --------        -------         -----------
DTS-HD Master Audio             English         1960 kbps       5.1 / 48 kHz / 1960 kbps / 16-bit (DTS Core: 5.1 / 48 kHz / 1509 kbps / 16-bit)
FILES:
Name            Time In         Length          Size            Total Bitrate
----            -------         ------          ----            -------------
00003.M2TS      0:00:00.000     0:00:20.053     45 864 960      18 297
CHAPTERS:
Number          Time In         Length          Avg Video Rate  Max 1-Sec Rate  Max 1-Sec Time  Max 5-Sec Rate  Max 5-Sec Time  Max 10Sec Rate  Max 10Sec Time  Avg Frame Size  Max Frame Size  Max Frame Time
------          -------         ------          --------------  --------------  --------------  --------------  --------------  --------------  --------------  --------------  --------------  --------------
1               0:00:00.000     0:00:20.053     15 214 kbps     32 421 kbps     00:00:08.141    27 674 kbps     00:00:04.771    24 839 kbps     00:00:03.436    63 455 bytes    324 912 bytes   00:00:08.308
STREAM DIAGNOSTICS:
File            PID             Type            Codec           Language                Seconds                 Bitrate                 Bytes           Packets
----            ---             ----            -----           --------                --------------          --------------          -------------   -----
00003.M2TS      4113 (0x1011)   0x1B            AVC                                     19,953                  15 290                  38 136 751      208 048
00003.M2TS      4352 (0x1100)   0x86            DTS-HD MA       eng (English)           19,953                  1 970                   4 912 908       30 109
QUICK SUMMARY:
Disc Title: Santana McLaughlin Live at Montreux 2011 1080i AVC Shadowman
Disc Size: 80 889 858 402 bytes
Protection: AACS
BD-Java: No
Playlist: 00003.MPLS
Size: 45 864 960 bytes
Length: 0:00:20.053
Total Bitrate: 18,30 Mbps
Video: MPEG-4 AVC Video / 15214 kbps / 1080i / 29,970 fps / 16:9 / High Profile 4.1
Audio: English / DTS-HD Master Audio / 5.1 / 48 kHz / 1960 kbps / 16-bit (DTS Core: 5.1 / 48 kHz / 1509 kbps / 16-bit)

Скриншоты

Other forum [Profile] [PM]
Display posts from previous:    
Reply to topic

The time now is: Today 23:02

All times are GMT + 3 Hours



You cannot post new topics in this forum
You cannot reply to topics in this forum
You cannot edit your posts in this forum
You cannot delete your posts in this forum
You cannot vote in polls in this forum
You cannot attach files in this forum
You cannot download files in this forum