Today is a free download without charge Download

John Fogerty • Live at the Sturgis Buffalo Chip 2011 [2012, Rock, HDTV 1080i]

Reply to topic
 
Author
Message

Omen ®

Longevity: 8 years 3 months

Posts: 181087

Торрент-статистика

Post 24-Aug-2013 17:46

[Quote]

John Fogerty
- Live at the Sturgis Buffalo Chip 2011 -


Жанр: Rock
Продолжительность: 01:13:50
Год выпуска: Original air date: 2012-03-25

Треклист

01 history of the Sturgis Motorcycle Rally
02 intro by Jeff Bridges
03 Hey Tonight
04 Green River
05 Who'll Stop The Rain
06 Sweet Hitch-hiker
07 Born On The Bayou
08 Ramble Tamble
09 Midnight Special
10 Hot Rod Heart
11 Long As I Can See The Light
12 Have You Ever Seen The Rain?
13 Keep On Chooglin'
14 Up Around The Bend
15 Down On The Corner
16 The Old Man Down The Road
17 Bad Moon Rising
18) Fortunate Son
ENCORE
19 Lookin' Out My Back Door [w/Jeff Bridges]
20 Proud Mary [w/Jeff Bridges]
Качество: HDTV 1080i
Контейнер: TS
Видео кодек: MPEG2
Аудио кодек: AC3
Видео: MPEG2 Video 1920x1080 29.97fps 65000kbps 16.6 Mbps
Аудио: Dolby AC3 48000Hz 6ch 384kbps

Отчёт MediaInfo / BDInfo

GeneralID : 1 (0x1)Complete name : E:\John Fogerty - Live at the Sturgis Buffalo Chip.tsFormat : MPEG-TSFile size : 9.23 GiBDuration : 1h 13mnOverall bit rate mode : VariableOverall bit rate : 17.9 Mbps
VideoID : 6081 (0x17C1)Menu ID : 1 (0x1)Format : MPEG VideoFormat version : Version 2Format profile : [email protected] settings, BVOP : NoFormat settings, Matrix : CustomFormat settings, GOP : M=3, N=15Codec ID : 2Duration : 1h 13mnBit rate mode : VariableBit rate : 16.6 MbpsMaximum bit rate : 65.0 MbpsWidth : 1 920 pixelsHeight : 1 080 pixelsDisplay aspect ratio : 16:9Frame rate : 29.970 fpsColor space : YUVChroma subsampling : 4:2:0Bit depth : 8 bitsScan type : InterlacedScan order : Top Field FirstCompression mode : LossyBits/(Pixel*Frame) : 0.268Time code of first frame : 00:00:00;00Time code source : Group of pictures headerStream size : 8.57 GiB (93%)
AudioID : 6083 (0x17C3)Menu ID : 1 (0x1)Format : AC-3Format/Info : Audio Coding 3Mode extension : CM (complete main)Format settings, Endianness : BigCodec ID : 129Duration : 1h 13mnBit rate mode : ConstantBit rate : 384 KbpsChannel(s) : 6 channelsChannel positions : Front: L C R, Side: L R, LFESampling rate : 48.0 KHzBit depth : 16 bitsCompression mode : LossyDelay relative to video : 7msStream size : 203 MiB (2%)Language : English
Other forum [Profile] [PM]
Display posts from previous:    
Reply to topic

The time now is: Today 08:29

All times are GMT + 3 Hours



You cannot post new topics in this forum
You cannot reply to topics in this forum
You cannot edit your posts in this forum
You cannot delete your posts in this forum
You cannot vote in polls in this forum
You cannot attach files in this forum
You cannot download files in this forum