Today is a free download without charge Download

Крылья, ноги и хвосты (1986) DVDRip

Reply to topic
 
Author
Message

Omen ®

Longevity: 7 years 11 months

Posts: 181087

Торрент-статистика

Post 14-Sep-2011 19:31

[Quote]

Крылья, ноги и хвосты (1986) DVDRip-
Русское название: Крылья, ноги и хвосты
Год выпуска: 1986
Страна: СССР
Производство: Мульттелефильм ("Экран")
Жанр: Детский-Вид субтитров: Отсутствуют-Режиссер: Александр Татарский, Игорь Ковалев
Роли озвучивают: Александр Филиппенко, Алексей Птицын-Описание фильма:
Мультфильм о том, как гриф учил страуса летать.-Цитаты из фильма:
Крылья, ноги... Главное - хвост!
Лучше один день потерять, чтобы потом за пять минут долететь!
-Продолжительность: 00:03:52
Качество видео: DVDRip-Видеокодек: Xvid
Битрейт видео: ~2321 kbps
Размер кадра: 704x528, 25.00fps
Аудиокодек: AC3, 2 channels
Битрейт аудио: 192 kbps, 48.0 KHz-

MediaInfo

Код:
General
Complete name                    : Krylya.Nogi.Hvost.XVID.DVDRip.avi
Format                           : AVI
Format/Info                      : Audio Video Interleave
File size                        : 69.9 MiB
Duration                         : 3mn 52s
Overall bit rate                 : 2 524 Kbps
Writing application              : VirtualDubMod 1.5.10.2 (build 2542/release)
Writing library                  : VirtualDubMod build 2542/release
Video
ID                               : 0
Format                           : MPEG-4 Visual
Format profile                   : Advanced [email protected]
Format settings, BVOP            : 2
Format settings, QPel            : No
Format settings, GMC             : No warppoints
Format settings, Matrix          : Default (MPEG)
Codec ID                         : XVID
Codec ID/Hint                    : XviD
Duration                         : 3mn 52s
Bit rate                         : 2 322 Kbps
Width                            : 704 pixels
Height                           : 528 pixels
Display aspect ratio             : 4:3
Frame rate                       : 25.000 fps
Color space                      : YUV
Chroma subsampling               : 4:2:0
Bit depth                        : 8 bits
Scan type                        : Progressive
Compression mode                 : Lossy
Bits/(Pixel*Frame)               : 0.250
Stream size                      : 64.3 MiB (92%)
Writing library                  : XviD 1.2.1 (UTC 2008-12-04)
Audio
ID                               : 1
Format                           : AC-3
Format/Info                      : Audio Coding 3
Mode extension                   : CM (complete main)
Codec ID                         : 2000
Duration                         : 3mn 52s
Bit rate mode                    : Constant
Bit rate                         : 192 Kbps
Channel(s)                       : 2 channels
Channel positions                : Front: L R
Sampling rate                    : 48.0 KHz
Bit depth                        : 16 bits
Compression mode                 : Lossy
Stream size                      : 5.32 MiB (8%)
Alignment                        : Split accross interleaves
Interleave, duration             : 40 ms (1.00 video frame)
Interleave, preload duration     : 500 ms
-Скриншоты:
         
Other forum [Profile] [PM]
Display posts from previous:    
Reply to topic

The time now is: Today 12:59

All times are GMT + 3 Hours



You cannot post new topics in this forum
You cannot reply to topics in this forum
You cannot edit your posts in this forum
You cannot delete your posts in this forum
You cannot vote in polls in this forum
You cannot attach files in this forum
You cannot download files in this forum