Today is a free download without charge Download

Two Door Cinema Club - Haldern Pop Festival 2012 [2013, Indie rock/Dance-punk/Synthpop,, HDTV 720p]

Reply to topic
 
Author
Message

Omen ®

Longevity: 8 years 4 months

Posts: 181087

Торрент-статистика

Post 23-Aug-2013 21:25

[Quote]

Two Door Cinema Club - Haldern Pop Festival 2012
Жанр: Indie rock/Dance-punk/Synthpop,
Продолжительность: 00:35:45
Год выпуска: 2013
Описание: Выступление северо-ирландского инди-рок бэнда на рок-фестивале Haldern Pop Festival в немецком Халдерне в 2012 году.
Доп. информация: Собственная запись со спутникового канала WDR 2013 aug22.
Показ в рамках программы Rockpalast.
Треклист: Cigarettes In The Theatre
Undercover Martyn
Do You Want It All?
This Is The Life
Wake Up
Something Good Can Work
You're Not Stubborn
Settle
Costume Party
Handshake
Качество: HDTV 720p
Контейнер: TS
Видео кодек: H.264
Аудио кодек: AC3
Видео: Mpeg4 AVC, 1280x720, 8635 kbps, 50fps Progressive
Аудио: AC3, 448 kbps, 48 kHz, stereo
Аудио 2: MP2, 192 kbps, 48 kHz, stereo
Аудио 3: MP2, 192 kbps, 48 kHz, stereo

Отчёт MediaInfo / BDInfo

GeneralID : 1 (0x1)Complete name : D:\Downloads\Two Door Cinema Club - Haldern Pop Festival 2012.tsFormat : MPEG-TSFile size : 2.49 GiBDuration : 35mn 45sOverall bit rate mode : VariableOverall bit rate : 9 968 Kbps
VideoID : 5501 (0x157D)Menu ID : 1 (0x1)Format : AVCFormat/Info : Advanced Video CodecFormat profile : [email protected] settings, CABAC : YesFormat settings, ReFrames : 4 framesCodec ID : 27Duration : 35mn 45sBit rate : 8 635 KbpsWidth : 1 280 pixelsHeight : 720 pixelsDisplay aspect ratio : 16:9Frame rate : 50.000 fpsColor space : YUVChroma subsampling : 4:2:0Bit depth : 8 bitsScan type : ProgressiveBits/(Pixel*Frame) : 0.187Stream size : 2.16 GiB (87%)
Audio #1ID : 5502 (0x157E)Menu ID : 1 (0x1)Format : MPEG AudioFormat version : Version 1Format profile : Layer 2Codec ID : 3Duration : 35mn 45sBit rate mode : ConstantBit rate : 192 KbpsChannel(s) : 2 channelsSampling rate : 48.0 KHzCompression mode : LossyStream size : 49.1 MiB (2%)Language : German
Audio #2ID : 5503 (0x157F)Menu ID : 1 (0x1)Format : MPEG AudioFormat version : Version 1Format profile : Layer 2Codec ID : 3Duration : 35mn 45sBit rate mode : ConstantBit rate : 192 KbpsChannel(s) : 2 channelsSampling rate : 48.0 KHzCompression mode : LossyStream size : 49.1 MiB (2%)
Audio #3ID : 5506 (0x1582)Menu ID : 1 (0x1)Format : AC-3Format/Info : Audio Coding 3Mode extension : CM (complete main)Format settings, Endianness : BigCodec ID : 6Duration : 35mn 45sBit rate mode : ConstantBit rate : 448 KbpsChannel(s) : 2 channelsChannel positions : Front: L RSampling rate : 48.0 KHzBit depth : 16 bitsCompression mode : LossyStream size : 115 MiB (4%)Language : German
TextID : 5504 (0x1580)-100Menu ID : 1 (0x1)Format : TeletextLanguage : German
MenuID : 5520 (0x1590)Menu ID : 1 (0x1)Duration : 35mn 45sList : 5501 (0x157D) (AVC) / 5503 (0x157F) (MPEG Audio) / 5506 (0x1582) (AC-3, German) / 5502 (0x157E) (MPEG Audio, German) / 5504 (0x1580) ()Language : / / German / German

Скриншоты

Other forum [Profile] [PM]
Display posts from previous:    
Reply to topic

The time now is: Today 05:27

All times are GMT + 3 Hours



You cannot post new topics in this forum
You cannot reply to topics in this forum
You cannot edit your posts in this forum
You cannot delete your posts in this forum
You cannot vote in polls in this forum
You cannot attach files in this forum
You cannot download files in this forum