Today is a free download without charge Download

Manic Street Preachers - Rockpalast 2007 [2013, Alternative rock/Hard rock, HDTV 720p]

Reply to topic
 
Author
Message

Omen ®

Longevity: 8 years 3 months

Posts: 181087

Торрент-статистика

Post 23-Aug-2013 17:20

[Quote]

Manic Street Preachers - Rockpalast 2007
Жанр: Alternative rock/Hard rock
Продолжительность: 00:28:57
Год выпуска: 2013
Описание: Выступление альтернатив-рок бэнда из Уэльса Manic Street Preachers в рамках Rockpalast в поддержку альбома ''Send Away the Tigers''
Доп. информация: Собственная запись со спутникового канала Einsfestival 2013 aug21
Треклист: 01. You Love Us
02. I'm Just A Patsy
03. You Stole The Sun From My Heart
04. Underdogs
05. Motorcycle Emptiness
06. Freedom Of Speech Won't Feed My Children
Качество: HDTV 720p
Контейнер: TS
Видео кодек: H.264
Аудио кодек: AC3
Видео: Mpeg4 AVC, 1280x720, 6980 kbps, 50 fps Progressive
Аудио: AC3, 448 kbps, 48 kHz, stereo
Аудио 2: MP2, 192 kbps, 48 kHz, stereo

Отчёт MediaInfo / BDInfo

GeneralID : 1 (0x1)Complete name : D:\Downloads\Manic Street Preachers - Rockpalast 2007.tsFormat : MPEG-TSFile size : 1.62 GiBDuration : 28mn 57sOverall bit rate mode : VariableOverall bit rate : 8 021 Kbps
VideoID : 1601 (0x641)Menu ID : 1 (0x1)Format : AVCFormat/Info : Advanced Video CodecFormat profile : [email protected] settings, CABAC : YesFormat settings, ReFrames : 4 framesFormat settings, GOP : M=8, N=32Codec ID : 27Duration : 28mn 57sBit rate : 6 978 KbpsWidth : 1 280 pixelsHeight : 720 pixelsDisplay aspect ratio : 16:9Frame rate : 50.000 fpsColor space : YUVChroma subsampling : 4:2:0Bit depth : 8 bitsScan type : ProgressiveBits/(Pixel*Frame) : 0.151Stream size : 1.41 GiB (87%)
Audio #1ID : 1602 (0x642)Menu ID : 1 (0x1)Format : MPEG AudioFormat version : Version 1Format profile : Layer 2Codec ID : 3Duration : 28mn 57sBit rate mode : ConstantBit rate : 192 KbpsChannel(s) : 2 channelsSampling rate : 48.0 KHzCompression mode : LossyStream size : 39.8 MiB (2%)Language : German
Audio #2ID : 1606 (0x646)Menu ID : 1 (0x1)Format : AC-3Format/Info : Audio Coding 3Mode extension : CM (complete main)Format settings, Endianness : BigCodec ID : 6Duration : 28mn 57sBit rate mode : ConstantBit rate : 448 KbpsChannel(s) : 2 channelsChannel positions : Front: L RSampling rate : 48.0 KHzBit depth : 16 bitsCompression mode : LossyStream size : 92.8 MiB (6%)Language : German
TextID : 1604 (0x644)-100Menu ID : 1 (0x1)Format : TeletextLanguage : German
MenuID : 1600 (0x640)Menu ID : 1 (0x1)Duration : 28mn 57sList : 1601 (0x641) (AVC) / 1606 (0x646) (AC-3, German) / 1602 (0x642) (MPEG Audio, German) / 1604 (0x644) ()Language : / German / German

Скриншоты

Other forum [Profile] [PM]
Display posts from previous:    
Reply to topic

The time now is: Today 22:13

All times are GMT + 3 Hours



You cannot post new topics in this forum
You cannot reply to topics in this forum
You cannot edit your posts in this forum
You cannot delete your posts in this forum
You cannot vote in polls in this forum
You cannot attach files in this forum
You cannot download files in this forum