Today is a free download without charge Download

S.W.A.T.: Спецназ города ангелов / S.W.A.T. (Кларк Джонсон) [2003 г., боевик, триллер, криминал, BDRip1080p]

Reply to topic
 
Author
Message

Delia ®

Gender:

Longevity: 9 years 7 months

Posts: 1821

Торрент-статистика

Post 14-Sep-2011 13:29

[Quote]

S.W.A.T.: Спецназ города ангеловS.W.A.T. Год выпуска: 2003
Страна: США
Жанр: боевик, триллер, криминал
Продолжительность: 01:57:16
Перевод: Профессиональный (полное дублирование)
Режиссер: Кларк Джонсон
Продюссер: Дэн Халстед, Крис Ли, Нил Х. Мориц
Сценарий: Дэвид Эйер, Дэвид МакКенна, Роберт Хэмнер
Бюджет: $80 000 000
Премьера в мире: 8 августа 2003
В ролях: Сэмюэл Л. Джексон, Колин Фаррелл, Мишель Родригес, LL Кул Джей, Джош Чарльз, Джереми Реннер, Брайан Ван Холт, Оливье Мартинес, Рег Э. Кэти, Ларри Поиндекстер
Описание: В полиции США существует множество видов спецназа, но самым крутым по праву считается Особое подразделение, отбор в ряды которого является настоящим испытанием. Джима Стрита из Лос-анджелесской полиции зачисляют в состав Особого подразделения.После обучения и тренировок молодое пополнение во главе с командиром Хондо ждет первое испытание — перевозка известного наркобарона из тюрьмы в руки ФБР.Простое на первый взгляд задание осложняется тем, что богатый пленник назначает за свое освобождение невероятный куш — 100 миллионов долларов! Поэтому на всем пути следования подразделению предстоит отбивать непрекращающиеся атаки желающих получить награду...
Качество: BDRip1080p
Формат: MKV
Видео кодек: H.264
Аудио кодек: AC3
Видео: English, 4692 Кбит/сек, 1920*800 (2,40:1), в 23,976 кадр/сек, AVC ([email protected])
Аудио: Russian, 384 Кбит/сек, 48,0 КГц, 16 бит, 6 канала(ов), AC-3

MI:

Общее
Уникальный идентификатор : 202479989469864169548555202015778398778 (0x98543A3C8474D64CBEFDD760A2BD623A)
Полное имя : E:\торрент\Swat.2003.BDRip.1080р.mkv
Формат : Matroska
Размер файла : 4,16 Гбайт
Продолжительность : 1 ч. 57 м.
Общий поток : 5076 Кбит/сек
Дата кодирования : UTC 2011-09-14 07:44:19
Программа кодирования : mkvmerge v4.9.1 ('Ich will') built on Jul 11 2011 23:53:15
Библиотека кодирования : libebml v1.2.1 + libmatroska v1.1.1
Видео
Идентификатор : 1
Формат : AVC
Формат/Информация : Advanced Video Codec
Профиль формата : [email protected]
Параметр CABAC формата : Да
Параметр ReFrames формата : 5 кадры
Идентификатор кодека : V_MPEG4/ISO/AVC
Продолжительность : 1 ч. 57 м.
Битрейт : 4692 Кбит/сек
Ширина : 1920 пикс.
Высота : 800 пикс.
Соотношение сторон : 2,40:1
Частота кадров : 23,976 кадр/сек
Цветовое пространство : YUV
Подвыборка цветности : 4:2:0
Битовая глубина : 8 бит
Тип развёртки : Прогрессивная
Бит/(Пиксели*Кадры) : 0.127
Размер потока : 3,76 Гбайт (90%)
Библиотека кодирования : x264 core 116 r2074 2641b9e
Настройки программы : cabac=1 / ref=5 / deblock=1:-3:-3 / analyse=0x3:0x133 / me=umh / subme=8 / psy=1 / psy_rd=1.00:0.15 / mixed_ref=1 / me_range=32 / chroma_me=1 / trellis=2 / 8x8dct=1 / cqm=0 / deadzone=21,11 / fast_pskip=0 / chroma_qp_offset=-3 / threads=6 / sliced_threads=0 / nr=0 / decimate=1 / interlaced=0 / bluray_compat=0 / constrained_intra=0 / bframes=6 / b_pyramid=2 / b_adapt=2 / b_bias=0 / direct=3 / weightb=1 / open_gop=0 / weightp=2 / keyint=250 / keyint_min=23 / scenecut=40 / intra_refresh=0 / rc=2pass / mbtree=0 / bitrate=4692 / ratetol=1.0 / qcomp=0.60 / qpmin=10 / qpmax=51 / qpstep=4 / cplxblur=20.0 / qblur=0.5 / ip_ratio=1.40 / pb_ratio=1.30 / aq=1:1.00
Язык : English
Аудио
Идентификатор : 2
Формат : AC-3
Формат/Информация : Audio Coding 3
Расширение режима : CM (complete main)
Идентификатор кодека : A_AC3
Продолжительность : 1 ч. 57 м.
Вид битрейта : Постоянный
Битрейт : 384 Кбит/сек
Канал(ы) : 6 канала(ов)
Расположение каналов : Front: L C R, Side: L R, LFE
Частота : 48,0 КГц
Битовая глубина : 16 бит
Метод сжатия : С потерями
Размер потока : 322 Мбайт (8%)
Язык : Russian
Меню
00:00:00.000 : en:00:00:00.000
00:08:58.371 : en:00:08:58.371
00:16:15.308 : en:00:16:15.308
00:22:52.621 : en:00:22:52.621
00:30:17.941 : en:00:30:17.941
00:35:21.369 : en:00:35:21.369
00:40:53.910 : en:00:40:53.910
00:47:46.614 : en:00:47:46.614
00:55:03.217 : en:00:55:03.217
01:03:33.393 : en:01:03:33.393
01:10:12.083 : en:01:10:12.083
01:20:52.639 : en:01:20:52.639
01:27:59.816 : en:01:27:59.816
01:38:52.510 : en:01:38:52.510
01:43:26.867 : en:01:43:26.867
01:46:14.618 : en:01:46:14.618

Скриншоты

                 

_________________
Человек – это канат, натянутый между животным и сверхчеловеком, – канат над пропастью.
В человеке ценно то, что он мост, а не цель. Фридрих Ницше
Other forum [Profile] [PM]
Display posts from previous:    
Reply to topic

The time now is: Today 10:57

All times are GMT + 3 Hours



You cannot post new topics in this forum
You cannot reply to topics in this forum
You cannot edit your posts in this forum
You cannot delete your posts in this forum
You cannot vote in polls in this forum
You cannot attach files in this forum
You cannot download files in this forum