Today is a free download without charge Download

Дядюшка АУ / 3 серии (Иосиф Доукша, Майя Бузинова) [1979 г., мультфильм, DVB]

Reply to topic
 
Author
Message

Omen ®

Longevity: 7 years 11 months

Posts: 181087

Торрент-статистика

Post 23-Aug-2013 13:16

[Quote]

Дядюшка АУ / (3 серии)
Жанр: мультфильм
Год выпуска: 1979
Продолжительность: 00:19:00 + 00:18:08 + 00:18:24
Режиссёр: Иосиф Доукша, Майя Бузинова
Описание: весёлая, добрая и в меру поучительная сказка по мотивам повести финского писателя Ханну Мякеля "Дядюшка Ау". "Осенью на севере темнеет рано... так рано что в лесу совсем не рассветает и трудно понять что сейчас день или ночь". Вот тут и живет "дядюшка Ау - зловещий и страшный, правда очень маленький. Каждый вечер он отправляется на работу. Если где-то заскрипит дверь, если на кухне что-то зашлепает и зачавкает, что-то загрохочет и заворочеется на чердаке - это он ..."
1. "Дядюшка АУ . 1 серия" 1979г
2. "Ошибка Дядюшки АУ. 2 серия" 1979г.
3. "Дядюшка АУ в городе. 3 серия" 1979г.
Доп. информация:

Релиз группы:
Трансляция спутникового канала: "Карусель"
Качество видео: DVB
Формат видео: MPEG-PS
Видео: MPEG2 Video, 720x576, 25 fps, 3500 kbps
Аудио: MPEG Audio, 2 сh, 48 kHz, 192 kbps

MediaInfo

D:\Дядюшка АУ\1c. Дядюшка АУ (1979)_DVB by SLuMeP.mpg
General
Complete name : D:\Дядюшка АУ\1c. Дядюшка АУ (1979)_DVB by SLuMeP.mpg
Format : MPEG-PS
File size : 497 MiB
Duration : 19mn 0s
Overall bit rate mode : Variable
Overall bit rate : 3 655 Kbps
Writing library : (c) 1998-2010 Womble Multimedia, Inc. / MPEG Video Wizard DVD 5.0.0.114 (01/2010) / Apr 20 2010
Video #224
ID : 224 (0xE0)
Format : MPEG Video
Format version : Version 2
Format profile : [email protected]
Format settings, BVOP : Yes
Format settings, Matrix : Custom
Format settings, GOP : M=3, N=12
Duration : 19mn 0s
Bit rate mode : Variable
Bit rate : 3 391 Kbps
Maximum bit rate : 5 000 Kbps
Width : 720 pixels
Height : 576 pixels
Display aspect ratio : 4:3
Frame rate : 25.000 fps
Standard : PAL
Color space : YUV
Chroma subsampling : 4:2:0
Bit depth : 8 bits
Scan type : Interlaced
Scan order : Top Field First
Compression mode : Lossy
Bits/(Pixel*Frame) : 0.327
Stream size : 461 MiB (93%)
Writing library : (c) 1998-2010 Womble Multimedia, Inc. / MPEG Video Wizard DVD 5.0.0.114 (01/2010) / Apr 20 2010
Audio #192
ID : 192 (0xC0)
Format : MPEG Audio
Format version : Version 1
Format profile : Layer 2
Duration : 19mn 0s
Bit rate mode : Constant
Bit rate : 192 Kbps
Channel(s) : 2 channels
Sampling rate : 48.0 KHz
Compression mode : Lossy
Stream size : 26.1 MiB (5%)
Other forum [Profile] [PM]
Display posts from previous:    
Reply to topic

The time now is: Today 20:17

All times are GMT + 3 Hours



You cannot post new topics in this forum
You cannot reply to topics in this forum
You cannot edit your posts in this forum
You cannot delete your posts in this forum
You cannot vote in polls in this forum
You cannot attach files in this forum
You cannot download files in this forum