Today is a free download without charge Download

В старом сундуке (Леонид Кощеников) [1990 г., мультфильм, DVB]

Reply to topic
 
Author
Message

Omen ®

Longevity: 7 years 11 months

Posts: 181087

Торрент-статистика

Post 23-Aug-2013 05:11

[Quote]

В старом сундуке
Жанр: мультфильм
Год выпуска: 1990
Продолжительность: 00:10:08
Режиссёр: Леонид Кощеников
Описание: мультфильм о том , как в cтаром доме на чердаке лежал заброшенный сундук с игрушками, игрушки которые в нем находились хотели выбратся из сундука но не знали как ...
Доп. информация: по мотивам сказки В. Воронина

Трансляция спутникового канала: "Карусель"
Качество видео: DVB
Формат видео: MPEG-PS
Видео: MPEG2 Video, 720x576, 25 fps, 3200 kbps
Аудио: MPEG Audio, 2 сh, 48 kHz, 192 kbps

MediaInfo

D:\В старом сундуке. (1990)_DVB by SLuMeP.mpg
General
Complete name : D:\В старом сундуке. (1990)_DVB by SLuMeP.mpg
Format : MPEG-PS
File size : 250 MiB
Duration : 10mn 8s
Overall bit rate mode : Variable
Overall bit rate : 3 446 Kbps
Video #224
ID : 224 (0xE0)
Format : MPEG Video
Format version : Version 2
Format profile : [email protected]
Format settings, BVOP : Yes
Format settings, Matrix : Custom
Duration : 10mn 8s
Bit rate mode : Variable
Bit rate : 3 186 Kbps
Maximum bit rate : 5 000 Kbps
Width : 720 pixels
Height : 576 pixels
Display aspect ratio : 4:3
Frame rate : 25.000 fps
Standard : PAL
Color space : YUV
Chroma subsampling : 4:2:0
Bit depth : 8 bits
Scan type : Interlaced
Scan order : Top Field First
Compression mode : Lossy
Bits/(Pixel*Frame) : 0.307
Stream size : 231 MiB (92%)
Audio #192
ID : 192 (0xC0)
Format : MPEG Audio
Format version : Version 1
Format profile : Layer 2
Duration : 10mn 8s
Bit rate mode : Constant
Bit rate : 192 Kbps
Channel(s) : 2 channels
Sampling rate : 48.0 KHz
Compression mode : Lossy
Stream size : 13.9 MiB (6%)

Скриншоты

Other forum [Profile] [PM]
Display posts from previous:    
Reply to topic

The time now is: Today 17:54

All times are GMT + 3 Hours



You cannot post new topics in this forum
You cannot reply to topics in this forum
You cannot edit your posts in this forum
You cannot delete your posts in this forum
You cannot vote in polls in this forum
You cannot attach files in this forum
You cannot download files in this forum