Today is a free download without charge Download

(OST) Uchouten Kazoku / The Eccentric Family [2CD] [FLAC, image+.cue, lossless] [2013 г.]

Reply to topic
 
Author
Message

Omen ®

Longevity: 9 years

Posts: 181086

Торрент-статистика

Post 22-Aug-2013 21:03

[Quote]

Uchouten Kazoku / The Eccentric Family / 有頂天家族 Год выпуска: 2013 г.
Страна: Япония
Продолжительность: 37.12
Аудио кодек: FLAC (*.flac)
Тип рипа: image+.cue
Описание: раздача музыки, связанной с аниме Uchouten Kazoku.
Обновляться будет по мере появления дисков в сети.

[AR] Uchouten Kazoku OP Single - Uchouten Jinsei [milktub]

Дата выпуска: 31 июля 2013 г.
Каталог: LACM-14115
Тип рипа: image+.cue
Продолжительность: 16.37
Наличие сканов в содержимом раздачи: нет
Треклист:
1) 有頂天人生;
2) ふらゆら;
3) 有頂天人生 (Instrumental);
4) ふらゆら (Instrumental).

Лог проверки качества

Exact Audio Copy V1.0 beta 3 from 29. August 2011
EAC extraction logfile from 3. August 2013, 21:36
milktub / 有頂天人生
Used drive : TSSTcorpCDDVDW SN-208AB Adapter: 0 ID: 0
Read mode : SecureUtilize accurate stream : YesDefeat audio cache : YesMake use of C2 pointers : No
Read offset correction : 6Overread into Lead-In and Lead-Out : NoFill up missing offset samples with silence : YesDelete leading and trailing silent blocks : NoNull samples used in CRC calculations : YesUsed interface : Native Win32 interface for Win NT & 2000
Used output format : Internal WAV RoutinesSample format : 44.100 Hz; 16 Bit; Stereo
TOC of the extracted CD
Track | Start | Length | Start sector | End sector --------------------------------------------------------- 1 | 0:00.00 | 4:08.65 | 0 | 18664 2 | 4:08.65 | 4:09.46 | 18665 | 37385 3 | 8:18.36 | 4:08.64 | 37386 | 56049 4 | 12:27.25 | 4:09.43 | 56050 | 74767
Range status and errors
Selected range
Filename D:\扫图\milktub - 有頂天人生.wav
Peak level 96.6 % Extraction speed 1.4 X Range quality 100.0 % Copy CRC DC66DF4D Copy OK
No errors occurred
End of status report
==== Log checksum EB705E267BF2E70B0604F06F60A6FD17617E578382048E446B5CB2035201BC7C ====

[AR] Uchouten Kazoku ED Single - Que sera sera [fhana]

Дата выпуска: 21 августа 2013 г.
Каталог: LACM-14129
Тип рипа: image+.cue
Продолжительность: 20.35
Наличие сканов в содержимом раздачи: да
Треклист:
1) ケセラセラ;
2) 君という特異点[singular you];
3) ケセラセラ -Instrumental-;
4) 君という特異点[singular you] -Instrumental-.

Лог проверки качества

Exact Audio Copy V1.0 beta 3 from 29. August 2011
EAC extraction logfile from 22. August 2013, 19:10
fhana / ケセラセラ
Used drive : PLEXTOR DVDR PX-650US Adapter: 0 ID: 0
Read mode : SecureUtilize accurate stream : YesDefeat audio cache : YesMake use of C2 pointers : No
Read offset correction : 6Overread into Lead-In and Lead-Out : NoFill up missing offset samples with silence : YesDelete leading and trailing silent blocks : NoNull samples used in CRC calculations : YesUsed interface : Native Win32 interface for Win NT & 2000
Used output format : Internal WAV RoutinesSample format : 44.100 Hz; 16 Bit; Stereo
TOC of the extracted CD
Track | Start | Length | Start sector | End sector --------------------------------------------------------- 1 | 0:00.00 | 4:58.00 | 0 | 22349 2 | 4:58.00 | 5:20.00 | 22350 | 46349 3 | 10:18.00 | 4:58.00 | 46350 | 68699 4 | 15:16.00 | 5:19.30 | 68700 | 92654
Range status and errors
Selected range
Filename C:\zxy900906\eac\cd_44.1\fhana - ケセラセラ.wav
Peak level 100.0 % Extraction speed 1.4 X Range quality 99.9 % Copy CRC 2C646309 Copy OK
No errors occurred
End of status report
---- CUETools DB Plugin V2.1.4
[CTDB TOCID: Gl_y_9k_YR5rqICsXIE.z1AKaxU-] foundSubmit result: Gl_y_9k_YR5rqICsXIE.z1AKaxU- has been confirmedTrack | CTDB Status 1 | (1/1) Accurately ripped 2 | (1/1) Accurately ripped 3 | (1/1) Accurately ripped 4 | (1/1) Accurately ripped
==== Log checksum 3FB6981CFD597D97733D5C389FF83FDD2CB38D7C59963ED02189411AA1939483 ====
-
Other forum [Profile] [PM]
Display posts from previous:    
Reply to topic

The time now is: Today 06:32

All times are GMT + 3 Hours



You cannot post new topics in this forum
You cannot reply to topics in this forum
You cannot edit your posts in this forum
You cannot delete your posts in this forum
You cannot vote in polls in this forum
You cannot attach files in this forum
You cannot download files in this forum