Today is a free download without charge Download

The National - Live From The Artists Den [2013, Indie rock, Post-punk revival, HDTV 1080i]

Reply to topic
 
Author
Message

Omen ®

Longevity: 8 years 4 months

Posts: 181087

Торрент-статистика

Post 22-Aug-2013 21:03

[Quote]

The National



Жанр: Indie rock, post-punk revival
Продолжительность: 00:53:59
Год выпуска: 2013
The Park Avenue Armory
New York, NY
Recorded on May 7, 2013
Broadcast August 8, 2013

Треклист

Matt Berninger - vocals
Aaron Dessner - guitar, piano, vocals
Bryce Dessner - guitar, vocals
Bryan Devendorf - drums, percussion, vocals
Scott Devendorf - bass
Tour musicians:
Benjamin Lanz - trombone, synthesizers, guitar, electronics, percussion, vocals
Kyle Resnick - trumpet, piano, percussion, organs, vocals
Thomas Bartlett - piano, keyboard
Yuki Numata Resnick - violin
Caroline Shaw - violin
Caleb Burnhams - viola
Clarice Jensen - cello
01 Bloodbuzz Ohio
02 Don't Swallow The Cap
03 Afraid Of Everyone
04 Squalor Victoria
05 Fireproof
06 This Is The Last Time
07 I Need My Girl
08 Sea Of Love
09 England
10 Graceless
11 Fake Empire
12 Terrible Love

The National

The National — американская инди-рок-группа, сформированная в Нью-Йорке музыкантами из Цинциннати, штат Огайо.
Ради участия в проекте будущим музыкантам пришлось бросить работу. Первый самостоятельный альбом «The National» был выпущен под лейблом Brassland Records, принадлежащем братьям Десснерам и Алеку Беймсу. Музыканты дали несколько концертов в поддержку готовящегося альбома. Следом последовал второй альбом «Sad Songs for Dirty Lovers». В 2005 группа стала записываться под новым лейблом — Beggars Banquet Records и выпустила альбом «Alligator», записанный под новым лейблом. 22 мая 2007 года появился альбом «Boxer», в записи которого принимали участие приглашённые музыканты. 10 мая 2010 года состоялся выпуск альбома «High Violet», ставшего коммерчески наиболее успешным альбомом группы.
Качество: HDTV 1080i
Контейнер: TS
Видео кодек: MPEG2
Аудио кодек: AC3
Видео: MPEG2 Video 1920x1080 29.97fps 8505 Kbps
Аудио: Dolby AC3 48000Hz stereo 192kbps

Отчёт MediaInfo / BDInfo

GeneralID : 1 (0x1)Complete name : E:\The National on Live From The Artists Den May 7, 2013.tsFormat : MPEG-TSFile size : 3.45 GiBDuration : 54mn 0sOverall bit rate mode : VariableOverall bit rate : 9 151 Kbps
VideoID : 120 (0x78)Menu ID : 1 (0x1)Format : MPEG VideoFormat version : Version 2Format profile : [email protected] settings, BVOP : NoFormat settings, Matrix : CustomFormat settings, GOP : M=3, N=30Codec ID : 2Duration : 53mn 59sBit rate mode : VariableBit rate : 8 505 KbpsMaximum bit rate : 15.0 MbpsWidth : 1 920 pixelsHeight : 1 080 pixelsDisplay aspect ratio : 16:9Frame rate : 29.970 fpsColor space : YUVChroma subsampling : 4:2:0Bit depth : 8 bitsScan type : InterlacedScan order : Top Field FirstCompression mode : LossyBits/(Pixel*Frame) : 0.137Time code of first frame : 00:00:00;00Time code source : Group of pictures headerStream size : 3.21 GiB (93%)
AudioID : 121 (0x79)Menu ID : 1 (0x1)Format : AC-3Format/Info : Audio Coding 3Mode extension : CM (complete main)Format settings, Endianness : BigCodec ID : 129Duration : 53mn 59sBit rate mode : ConstantBit rate : 192 KbpsChannel(s) : 2 channelsChannel positions : Front: L RSampling rate : 48.0 KHzBit depth : 16 bitsCompression mode : LossyDelay relative to video : 17msStream size : 74.2 MiB (2%)Language : English
Other forum [Profile] [PM]
Display posts from previous:    
Reply to topic

The time now is: Today 09:25

All times are GMT + 3 Hours



You cannot post new topics in this forum
You cannot reply to topics in this forum
You cannot edit your posts in this forum
You cannot delete your posts in this forum
You cannot vote in polls in this forum
You cannot attach files in this forum
You cannot download files in this forum