Today is a free download without charge Download

Ministry - Enjoy the Quiet - Live at Wacken 2012 [2013, Industrial, BDRip 1080p]

Reply to topic
 
Author
Message

Omen ®

Longevity: 8 years 4 months

Posts: 181087

Торрент-статистика

Post 22-Aug-2013 00:35

[Quote]

Ministry - Enjoy the Quiet - Live at Wacken 2012
Жанр: Industrial
Продолжительность: 00:58:10
Год выпуска: 2013
Tracklist:
01. Ghouldiggers
02. No "W"
03. Rio Grande Blood
04. Lies, Lies, Lies
05. 99 Percenters
06. Life Is Good
07. Waiting
08. Relapse
09. N.W.O.
10. Just One Fix
11. Thieves
Доп. информация: Сцена - LOUNGE
Качество: BDRip 1080p
Контейнер: MKV
Видео кодек: H.264
Аудио кодек: AC3
Видео: MPEG4 Video (H264) 1920x1080 10,3 Мбит/сек 23.976fps
Аудио: Dolby AC3 448 Кбит/сек 48000Hz stereo

MediaInfo

ОбщееУникальный идентификатор : 188735634925728161812466474107469410338 (0x8DFD293D0A206CBE83CB926F4471B022)Полное имя : D:\Ministry - Enjoy the Quiet - Live at Wacken 2012 1080p\Ministry - Enjoy the Quiet - Live at Wacken 2012.mkvФормат : MatroskaВерсия формата : Version 4 / Version 2Размер файла : 4,37 ГбайтПродолжительность : 58 м.Общий поток : 10,8 Мбит/секДата кодирования : UTC 2013-08-20 16:56:48Программа кодирования : mkvmerge v6.3.0 ('You can't stop me!') built on Jun 28 2013 20:09:41Библиотека кодирования : libebml v1.3.0 + libmatroska v1.4.0
ВидеоИдентификатор : 1Формат : AVCФормат/Информация : Advanced Video CodecПрофиль формата : [email protected]Параметр CABAC формата : ДаПараметр ReFrames формата : 4 кадраИдентификатор кодека : V_MPEG4/ISO/AVCПродолжительность : 58 м.Битрейт : 10,3 Мбит/секШирина : 1920 пикселейВысота : 1080 пикселейСоотношение сторон : 16:9Режим частоты кадров : ПостоянныйЧастота кадров : 23,976 кадра/секЦветовое пространство : YUVСубдискретизация насыщенности : 4:2:0Битовая глубина : 8 битТип развёртки : ПрогрессивнаяБит/(Пиксели*Кадры) : 0.208Размер потока : 4,10 Гбайт (94%)Библиотека кодирования : x264 core 133 r2334 a3ac64bНастройки программы : cabac=1 / ref=4 / deblock=1:0:0 / analyse=0x3:0x133 / me=umh / subme=8 / psy=1 / psy_rd=1.00:0.00 / mixed_ref=1 / me_range=16 / chroma_me=1 / trellis=1 / 8x8dct=1 / cqm=0 / deadzone=21,11 / fast_pskip=0 / chroma_qp_offset=-2 / threads=12 / lookahead_threads=2 / sliced_threads=0 / nr=0 / decimate=1 / interlaced=0 / bluray_compat=0 / constrained_intra=0 / bframes=3 / b_pyramid=2 / b_adapt=1 / b_bias=0 / direct=1 / weightb=1 / open_gop=0 / weightp=2 / keyint=250 / keyint_min=23 / scenecut=40 / intra_refresh=0 / rc_lookahead=40 / rc=2pass / mbtree=1 / bitrate=10318 / ratetol=1.0 / qcomp=0.60 / qpmin=0 / qpmax=69 / qpstep=4 / cplxblur=20.0 / qblur=0.5 / ip_ratio=1.40 / aq=1:1.00Язык : EnglishDefault : ДаForced : Нет
АудиоИдентификатор : 2Формат : AC-3Формат/Информация : Audio Coding 3Расширение режима : CM (complete main)Параметр Endianness формата : BigИдентификатор кодека : A_AC3Продолжительность : 58 м.Вид битрейта : ПостоянныйБитрейт : 448 Кбит/секКаналы : 2 каналаРасположение каналов : Front: L RЧастота : 48,0 КГцБитовая глубина : 16 битМетод сжатия : С потерямиРазмер потока : 186 Мбайт (4%)Default : ДаForced : Нет
Меню00:00:00.000 : en:00:00:00.00000:00:24.566 : en:00:00:24.56600:07:59.437 : en:00:07:59.43700:11:09.878 : en:00:11:09.87800:15:12.203 : en:00:15:12.20300:20:48.622 : en:00:20:48.62200:24:49.947 : en:00:24:49.94700:29:15.212 : en:00:29:15.21200:34:39.369 : en:00:34:39.36900:40:40.939 : en:00:40:40.93900:46:32.331 : en:00:46:32.33100:50:57.846 : en:00:50:57.84600:58:07.526 : en:00:58:07.526
Other forum [Profile] [PM]
Display posts from previous:    
Reply to topic

The time now is: Today 09:28

All times are GMT + 3 Hours



You cannot post new topics in this forum
You cannot reply to topics in this forum
You cannot edit your posts in this forum
You cannot delete your posts in this forum
You cannot vote in polls in this forum
You cannot attach files in this forum
You cannot download files in this forum