Today is a free download without charge Download

Пятерка супергероев / Super Buddies (Роберт Винс) (Приключения, Семейный 2013) HDRip

Reply to topic
 
Author
Message

Omen ®

Longevity: 8 years 6 months

Posts: 181087

Торрент-статистика

Post 21-Aug-2013 19:39

[Quote]

Пятерка супергероев
Super Buddies
- Год выпуска: 2013
Производство: США
Жанр: Приключения, Семейный
Перевод: Дублированный [Лицензия]
Субтитры: Отсутствуют
Дата мировой премьеры: 8 августа 2013
Дата выхода DVD релиза: 20 августа 2013, «Уолт Дисней Компани СНГ»
Дата выхода Blu-Ray релиза: 20 августа 2013, «Уолт Дисней Компани СНГ»
Режиссер: Роберт Винс
Продюсер: Анна МакРобертс, Роберт Винс
Актеры: Джон Ратценбергер, Майкл Тиган, Джейсон Эрлз, Тим Конуэй, Аттикус Шаффер, Элисон Стоунер, Купер Рот, Тай Паниц, Колин Хэнкс
Описание фильма:
Встречайте удивительных супергероев в веселом и увлекательном приключении для всей семьи от Disney. Обычный день на Ферме Фернфилда перестал быть скучным, когда Бутуз, Замараш, Би-Дог, Будда и Розабелла нашли загадочные кольца, наделившие наших героев уникальными суперспособностями. Вы и «гав» сказать не успеете, как отважные щенки окажутся втянуты в неравный бой с оборотнем-пришельцем из далекого космоса, угрожающим всей нашей планете. Но смогут ли верные друзья поставить злодея на место, не раскрыв при этом тайну своих суперспособностей? «Пятерка супергероев» — это фильм, полный юмора, приключений и очаровательных героев, который станет украшением вашей домашней коллекции. Бесстрашные друзья доказывают – если подходишь к делу с умом и играешь в команде, то не нужны никакие суперспособности, чтобы быть настоящим супергероем!

Продолжительность: 01:20:40
Качество видео: HDRip
Видеокодек: Xvid
Битрейт видео: ~2047 Kbps 23.98 fps
Размер кадра: 720x400
Аудиокодек: AC3 5.1
Битрейт аудио: 384 Kbps 48000 Hz
Сэмпл: Скачать

MediaInfo:

Код:
Общее
Полное имя                               : Piaterka.Supergeroev.2013.D.HDRip.1400Mb.avi
Формат                                   : AVI
Формат/Информация                        : Audio Video Interleave
Размер файла                             : 1,38 Гбайт
Продолжительность                        : 1 ч. 20 м.
Общий поток                              : 2440 Кбит/сек
Программа кодирования                    : VirtualDubMod 1.5.10.2 (build 2540/release)
Библиотека кодирования                   : VirtualDubMod build 2540/release
Видео
Идентификатор                            : 0
Формат                                   : MPEG-4 Visual
Профиль формата                          : Advanced [email protected]
Параметр BVOP формата                    : 2
Параметр QPel формата                    : Нет
Параметр GMC формата                     : Без точки перехода
Параметр матрицы формата                 : Default (H.263)
Идентификатор кодека                     : XVID
Идентификатор кодека/Подсказка           : XviD
Продолжительность                        : 1 ч. 20 м.
Битрейт                                  : 2047 Кбит/сек
Ширина                                   : 720 пикселей
Высота                                   : 400 пикселей
Соотношение сторон                       : 16:9
Частота кадров                           : 23,976 кадра/сек
Цветовое пространство                    : YUV
Субдискретизация насыщенности            : 4:2:0
Битовая глубина                          : 8 бит
Тип развёртки                            : Прогрессивная
Метод сжатия                             : С потерями
Бит/(Пиксели*Кадры)                      : 0.296
Размер потока                            : 1,15 Гбайт (84%)
Библиотека кодирования                   : XviD 1.2.1 (UTC 2008-12-04)
Аудио
Идентификатор                            : 1
Формат                                   : AC-3
Формат/Информация                        : Audio Coding 3
Расширение режима                        : CM (complete main)
Параметр Endianness формата              : Big
Идентификатор кодека                     : 2000
Продолжительность                        : 1 ч. 20 м.
Вид битрейта                             : Постоянный
Битрейт                                  : 384 Кбит/сек
Каналы                                   : 6 каналов
Расположение каналов                     : Front: L C R, Side: L R, LFE
Частота                                  : 48,0 КГц
Битовая глубина                          : 16 бит
Метод сжатия                             : С потерями
Размер потока                            : 222 Мбайт (16%)
Выравнивание                             : Разделение по промежуткам
Продолжительность промежутка             : 42  мс. (1,00 видеокадр)
Время предзагрузки промежутка            : 500  мс.
Скриншоты:
           
Other forum [Profile] [PM]
Display posts from previous:    
Reply to topic

The time now is: Today 08:57

All times are GMT + 3 Hours



You cannot post new topics in this forum
You cannot reply to topics in this forum
You cannot edit your posts in this forum
You cannot delete your posts in this forum
You cannot vote in polls in this forum
You cannot attach files in this forum
You cannot download files in this forum