Today is a free download without charge Download

Пятерка супергероев / Super Buddies (Роберт Винс) (Приключения, Семейный 2013) BDRip [720p]

Reply to topic
 
Author
Message

Omen ®

Longevity: 8 years 6 months

Posts: 181087

Торрент-статистика

Post 21-Aug-2013 19:20

[Quote]

Пятерка супергероев
Super Buddies
- Год выпуска: 2013
Производство: США
Жанр: Приключения, Семейный
Перевод: Дублированный (лицензия)
Субтитры: Вшитые отключаемые
Язык субтитров: Английский
Дата мировой премьеры: 8 августа 2013
Дата выхода DVD релиза: 20 августа 2013, «Уолт Дисней Компани СНГ»
Дата выхода Blu-Ray релиза: 20 августа 2013, «Уолт Дисней Компани СНГ»
Режиссер: Роберт Винс
Продюсер: Анна МакРобертс, Роберт Винс
Актеры: Джон Ратценбергер, Майкл Тиган, Джейсон Эрлз, Тим Конуэй, Аттикус Шаффер, Элисон Стоунер, Купер Рот, Тай Паниц, Колин Хэнкс
Описание фильма:
Встречайте удивительных супергероев в веселом и увлекательном приключении для всей семьи от Disney. Обычный день на Ферме Фернфилда перестал быть скучным, когда Бутуз, Замараш, Би-Дог, Будда и Розабелла нашли загадочные кольца, наделившие наших героев уникальными суперспособностями. Вы и «гав» сказать не успеете, как отважные щенки окажутся втянуты в неравный бой с оборотнем-пришельцем из далекого космоса, угрожающим всей нашей планете. Но смогут ли верные друзья поставить злодея на место, не раскрыв при этом тайну своих суперспособностей? «Пятерка супергероев» — это фильм, полный юмора, приключений и очаровательных героев, который станет украшением вашей домашней коллекции. Бесстрашные друзья доказывают – если подходишь к делу с умом и играешь в команде, то не нужны никакие суперспособности, чтобы быть настоящим супергероем!

Продолжительность: 01:20:40
Качество видео: BDRip [720p]
Видеокодек: MPEG-4 AVC/H.264
Битрейт видео: ~6222 кбит/с
Размер кадра: 1280x720
Аудио #1: AC3, 6 ch, 448 кбит/с (русский)
Аудио #2: DTS, 6 ch, 1509 кбит/с (английский)

MediaInfo:

Код:
General
Unique ID                      : 234447164073359466516443391210653792394 (0xB060E1A13D11AA9B99518A038B5CB88A)
Complete name                  : Super.Buddies.2013.BDRip.720p.mkv
Format                         : Matroska
Format version                 : Version 2
File size                      : 4.61 GiB
Duration                       : 1h 20mn
Overall bit rate               : 8 168 Kbps
Encoded date                   : UTC 2013-08-21 00:17:06
Writing application            : mkvmerge v5.8.0 ('No Sleep / Pillow') built on Sep  2 2012 15:37:04
Writing library                : libebml v1.2.3 + libmatroska v1.3.0
Video
ID                             : 1
Format                         : AVC
Format/Info                    : Advanced Video Codec
Format profile                 : [url=mailto:[email protected]][email protected][/url]
Format settings, CABAC         : Yes
Format settings, ReFrames      : 8 frames
Codec ID                       : V_MPEG4/ISO/AVC
Duration                       : 1h 20mn
Bit rate                       : 6 222 Kbps
Width                          : 1 280 pixels
Height                         : 720 pixels
Display aspect ratio           : 16:9
Frame rate mode                : Constant
Frame rate                     : 23.976 fps
Color space                    : YUV
Chroma subsampling             : 4:2:0
Bit depth                      : 8 bits
Scan type                      : Progressive
Bits/(Pixel*Frame)             : 0.282
Stream size                    : 3.41 GiB (74%)
Writing library                : x264 core 132 r2310 76a5c3a
Encoding settings              : cabac=1 / ref=8 / deblock=1:-3:-3 / analyse=0x3:0x113 / me=umh / subme=10 / psy=1 / psy_rd=1.00:0.05 / mixed_ref=1 / me_range=32 / chroma_me=1 / trellis=2 / 8x8dct=1 / cqm=0 / deadzone=21,11 / fast_pskip=0 / chroma_qp_offset=-2 / threads=18 / lookahead_threads=1 / sliced_threads=0 / nr=0 / decimate=1 / interlaced=0 / bluray_compat=0 / constrained_intra=0 / bframes=5 / b_pyramid=2 / b_adapt=2 / b_bias=0 / direct=3 / weightb=1 / open_gop=0 / weightp=2 / keyint=250 / keyint_min=23 / scenecut=40 / intra_refresh=0 / rc=2pass / mbtree=0 / bitrate=6222 / ratetol=1.0 / qcomp=0.70 / qpmin=0 / qpmax=69 / qpstep=4 / cplxblur=20.0 / qblur=0.5 / ip_ratio=1.40 / pb_ratio=1.30 / aq=2:1.00
Language                       : English
Default                        : Yes
Forced                         : Yes
Audio #1
ID                             : 2
Format                         : AC-3
Format/Info                    : Audio Coding 3
Mode extension                 : CM (complete main)
Format settings, Endianness    : Big
Codec ID                       : A_AC3
Duration                       : 1h 20mn
Bit rate mode                  : Constant
Bit rate                       : 448 Kbps
Channel(s)                     : 6 channels
Channel positions              : Front: L C R, Side: L R, LFE
Sampling rate                  : 48.0 KHz
Bit depth                      : 16 bits
Compression mode               : Lossy
Stream size                    : 259 MiB (5%)
Language                       : Russian
Default                        : Yes
Forced                         : Yes
Audio #2
ID                             : 3
Format                         : DTS
Format/Info                    : Digital Theater Systems
Mode                           : 16
Format settings, Endianness    : Big
Codec ID                       : A_DTS
Duration                       : 1h 20mn
Bit rate mode                  : Constant
Bit rate                       : 1 509 Kbps
Channel(s)                     : 6 channels
Channel positions              : Front: L C R, Side: L R, LFE
Sampling rate                  : 48.0 KHz
Bit depth                      : 24 bits
Compression mode               : Lossy
Stream size                    : 872 MiB (18%)
Language                       : English
Default                        : No
Forced                         : No
Text
ID                             : 4
Format                         : UTF-8
Codec ID                       : S_TEXT/UTF8
Codec ID/Info                  : UTF-8 Plain Text
Language                       : English
Default                        : No
Forced                         : No
Menu
00:00:00.000                   : en:
00:03:30.668                   : en:
00:05:12.812                   : en:
00:07:26.654                   : en:
00:11:50.793                   : en:
00:14:19.316                   : en:
00:18:52.756                   : en:
00:22:28.680                   : en:
00:26:08.733                   : en:
00:28:06.726                   : en:
00:33:20.998                   : en:
00:38:43.029                   : en:
00:42:54.029                   : en:
00:46:15.981                   : en:
00:48:58.226                   : en:
00:52:41.992                   : en:
00:56:30.136                   : en:
01:03:26.511                   : en:
01:09:55.191                   : en:
01:15:33.487                   : en:
01:20:40.293                   : en:
-Скриншоты:
       
       -
Other forum [Profile] [PM]
Display posts from previous:    
Reply to topic

The time now is: Today 21:40

All times are GMT + 3 Hours



You cannot post new topics in this forum
You cannot reply to topics in this forum
You cannot edit your posts in this forum
You cannot delete your posts in this forum
You cannot vote in polls in this forum
You cannot attach files in this forum
You cannot download files in this forum