Today is a free download without charge Download

Чемпион (Сергей Шутов)[1979.,Детский, Семейный] IPTVRip

Reply to topic
 
Author
Message

sashau ®

Gender:

Longevity: 9 years 6 months

Posts: 3497

Торрент-статистика

Post 21-Aug-2013 13:47

[Quote]

Чемпион - Год выпуска: 1979
Жанр: Детский, Семейный
Выпущено: СССР, Казахфильм
Описание фильма:
Фильм по одноименной повести Б. Сокпакбаева о том, как дружба с веселой и находчивой девочкой помогла школьнику Мурату преодолеть свою нерешительность и стать победителем в соревнованиях по боксу.
Режиссер: Сергей Шутов
Актеры: Дархан Рсаев, Гаухар Садвакасова, Раиса Мухамедьярова, Амангельды Тажбаев, Бикен Римова, Досхан Жолжаксынов, Нурлыбай Есимгалиев
Продолжительность: 01:04:05
Качество видео: IPTVRip
Видео: MPEG4, DivX 5, 704x560 (5:4), 25.000 fps, 1 783 Kbps (0.181 bit/pixel)
Аудио: MP3, 48.0 KHz, 2 ch, 128 Kbps, CBR

МедиаИнфо:

Видео
Идентификатор : 0
Формат : MPEG-4 Visual
Параметр BVOP формата : 1
Параметр QPel формата : Нет
Параметр GMC формата : Без точки перехода
Параметр матрицы формата : Default (H.263)
Режим смешивания : Сжатый битовый поток
Идентификатор кодека : DX50
Идентификатор кодека/Подсказка : DivX 5
Продолжительность : 1 ч. 4 м.
Битрейт : 1783 Кбит/сек
Ширина : 704 пикселя
Высота : 560 пикселей
Соотношение сторон : 5:4
Частота кадров : 25,000 кадров/сек
Цветовое пространство : YUV
Субдискретизация насыщенности : 4:2:0
Битовая глубина : 8 бит
Тип развёртки : Прогрессивная
Метод сжатия : С потерями
Бит/(Пиксели*Кадры) : 0.181
Размер потока : 817 Мбайт (93%)
Библиотека кодирования : DivX 6.8.5 (UTC 2009-08-20)
Аудио
Идентификатор : 1
Формат : MPEG Audio
Версия формата : Version 1
Профиль формата : Layer 3
Режим : Joint stereo
Идентификатор кодека : 55
Идентификатор кодека/Подсказка : MP3
Продолжительность : 1 ч. 4 м.
Вид битрейта : Постоянный
Битрейт : 128 Кбит/сек
Каналы : 2 канала
Частота : 48,0 КГц
Метод сжатия : С потерями
Размер потока : 58,7 Мбайт (7%)
Выравнивание : Соединение по промежуткам
Продолжительность промежутка : 40 мс. (1,00 видеокадр)
Время предзагрузки промежутка : 504 мс.
Скриншоты:
         
         
Other forum [Profile] [PM]
Display posts from previous:    
Reply to topic

The time now is: Today 19:12

All times are GMT + 3 Hours



You cannot post new topics in this forum
You cannot reply to topics in this forum
You cannot edit your posts in this forum
You cannot delete your posts in this forum
You cannot vote in polls in this forum
You cannot attach files in this forum
You cannot download files in this forum