Today is a free download without charge Download

Мой папа лётчик (Александр Итыгилов) [2013, Россия, Украина, мелодрама, HDTV 1080i]

Reply to topic
 
Author
Message

Omen ®

Longevity: 8 years 10 months

Posts: 181086

Торрент-статистика

Post 21-Aug-2013 12:22

[Quote]

Мой папа лётчик. ( Эфир от 11.08.2013 ) Страна: Россия, Украина
Жанр: мелодрама
Год выпуска: 2013
Продолжительность: 01:29:35
Перевод: Не требуется
Cубтитры: нет
Режиссер: Александр Итыгилов
В ролях: Марина Коняшкина, Олег Харитонов, Сергей Комаров, Иван Шмаков, Елизавета Майская, Леся Самаева
Описание:
История о том, как мальчик Валька нашел себе папу-летчика, а маме - любящего мужа.
Люся Ермакова работает официанткой в офицерской столовой летного гарнизона. Ее сын Валька мечтает, чтобы у него был папа, и обязательно летчик. Подполковник Ивченко требует от Люси благосклонности, ведь это он помог ей с работой, но женщина избегает его. Ей нравится майор Ловцов. Однажды Валька убегает на аэродром и пропадает. На поиски ребенка поднимают весь гарнизон…

Сэмпл: http://multi-up.com/895017
Качество: HDTV 1080i
Контейнер: TS
Видео: AVC/H.264, 1920x1080 (16:9), 10,1 Мбит/сек, 25.000 fps
Аудио: Mp2, 48000 Hz, 192 Кбит/сек, 2 ch

MediaInfo

Видео
Идентификатор : 306 (0x132)
Идентификатор меню : 1 (0x1)
Формат : AVC
Формат/Информация : Advanced Video Codec
Профиль формата : [email protected]
Параметр CABAC формата : Да
Параметр ReFrames формата : 3 кадра
Идентификатор кодека : 27
Продолжительность : 1 ч. 29 м.
Битрейт : 10,1 Мбит/сек
Ширина : 1920 пикселей
Высота : 1080 пикселей
Соотношение сторон : 16:9
Частота кадров : 25,000 кадров/сек
Стандарт вещания : Component
Цветовое пространство : YUV
Субдискретизация насыщенности : 4:2:0
Битовая глубина : 8 бит
Тип развёртки : Чересстрочная
Порядок развёртки : Верхнее поле первое
Бит/(Пиксели*Кадры) : 0.195
Размер потока : 6,32 Гбайт (93%)
Основные цвета : BT.709
Характеристики трансфера : BT.709
Коэффициенты матрицы : BT.709
Аудио
Идентификатор : 406 (0x196)
Идентификатор меню : 1 (0x1)
Формат : MPEG Audio
Версия формата : Version 1
Профиль формата : Layer 2
Идентификатор кодека : 3
Продолжительность : 1 ч. 29 м.
Вид битрейта : Постоянный
Битрейт : 192 Кбит/сек
Каналы : 2 канала
Частота : 48,0 КГц
Метод сжатия : С потерями
Размер потока : 123 Мбайт (2%)

Скриншот c названием фильма

Скриншоты

Other forum [Profile] [PM]
Display posts from previous:    
Reply to topic

The time now is: Today 23:42

All times are GMT + 3 Hours



You cannot post new topics in this forum
You cannot reply to topics in this forum
You cannot edit your posts in this forum
You cannot delete your posts in this forum
You cannot vote in polls in this forum
You cannot attach files in this forum
You cannot download files in this forum