Today is a free download without charge Download

Дум / Doom (Анджей Бартковяк / Andrzej Bartkowiak) [2005, Великобритания, Чехия, Германия, США, Боевик, приключения, ужасы, фантастика, триллер, BDRip 1080p] [Unrated Extended Edition] DUB + MVO + DVO + AVO Sub (rus, eng) + original

Reply to topic
 
Author
Message

Omen ®

Longevity: 7 years

Posts: 181090

Торрент-статистика

Post 12-Sep-2011 20:08

[Quote]

Дум / Doom / [Unrated Extended Edition]

Страна: Великобритания, Чехия, Германия, США
Жанр: Боевик, приключения, ужасы, фантастика, триллер
Год выпуска: 2005
Продолжительность: 01:52:44
Перевод 1: Профессиональный (дублированный)
Перевод 2: Профессиональный (многоголосый закадровый) Киномания
Перевод 3: Профессиональный (двухголосый закадровый) П.Гланц и И.Королева
Перевод 4: Профессиональный (двухголосый закадровый) Tycoon
Перевод 5: Авторский (одноголосый закадровый) Гаврилов
Cубтитры: русские, английские
Оригинальная аудиодорожка: английский
Режиссер: Анджей Бартковяк / Andrzej Bartkowiak

В ролях:
Доби Опарей, Карл Урбан, Дуэйн Джонсон, Розамунд Пайк, Разаак Адоти, Ричард Брэйк, Аль Уивер, Декстер Флетчер, Брайан Стил, Бен Дэниелс, Йао Чин, Роберт Расселл, Дэниэл Йорк, Йен Хьюз, Сара Хотон, Бланка Яросова, Владислав Динтера, Петр Хнетковски, Ярослав Псеничка, Марек Мотличек, Даг Джонс, Рана Моррисон, Барбара Неделякова, Роберт Нельсон

Описание:
2145 год. После того, как из далёкой научной лаборатории Олдуай был получен сигнал о помощи, на место, планету Марс, пребывает отряд космического спецназа и обнаруживает разгромленную станцию. Вскоре выясняется, что на людей здесь охотятся полчища ужасных существ-мутантов...- -Раздача от: -Тип релиза: BDRip 1080p
Контейнер: MKV
Видео: MPEG-4 AVC / 11.8 Mbps / 1920x816 / 23.976 fps / High Profile 4.1
Аудио 1: Русский (DTS 5.1 / 48 kHz / 16 bit / 755 kbps) - Дубляж
Аудио 2: Русский (DD 5.1 / 48 kHz / 384 kbps) - Многоголосый (Киномания)
Аудио 3: Русский (DTS 5.1 / 48 kHz / 16 bit / 1510 kbps) - Двухголосый (П.Гланц и И.Королева)
Аудио 4: Русский (DD 5.1 / 48 kHz / 448 kbps) - Двухголосый (Tycoon)
Аудио 5: Русский (DD 5.1 / 48 kHz / 448 kbps) - Авторский (Гаврилов)
Аудио 6: Английский (DTS 5.1 / 48 kHz / 24 bit / 1510 kbps)
-Сэмпл: Ссылка-

MediaInfo

Код:
Общее
Уникальный идентификатор : 184393485036972462108837174404230770406 (0x8AB8E4B85EB66C93819CDE06F2296EE6)
Полное имя : C:\Users\1\Desktop\Фильмы\Раздачи\Doom.2005.BDRip.1080p.mkv
Формат : Matroska
Размер файла : 13,3 Гбайт
Продолжительность : 1 ч. 52 м.
Общий поток : 16,8 Мбит/сек
Дата кодирования : UTC 2011-06-05 05:05:23
Программа кодирования : mkvmerge v4.8.0 ('I Got The...') сборка от May 24 2011 03:12:58
Библиотека кодирования : libebml v1.2.0 + libmatroska v1.1.0
Видео
Идентификатор : 1
Формат : AVC
Формат/Информация : Advanced Video Codec
Профиль формата : [email protected]
Параметр CABAC формата : Да
Параметр ReFrames формата : 10 кадры
Параметры GOP формата : M=1, N=24
Идентификатор кодека : V_MPEG4/ISO/AVC
Продолжительность : 1 ч. 52 м.
Вид битрейта : Переменный
Битрейт : 11,8 Мбит/сек
Максимальный битрейт : 40,0 Мбит/сек
Ширина : 1920 пикс.
Высота : 816 пикс.
Соотношение сторон : 2,35:1
Частота кадров : 23,976 кадр/сек
Цветовое пространство : YUV
Подвыборка цветности : 4:2:0
Битовая глубина : 8 бит
Тип развёртки : Прогрессивная
Бит/(Пиксели*Кадры) : 0.314
Размер потока : 9,02 Гбайт (68%)
Заголовок : video
Библиотека кодирования : x264 core 114 r1924 08d04a4
Настройки программы : cabac=1 / ref=10 / deblock=1:-2:-2 / analyse=0x3:0x133 / me=umh / subme=10 / psy=1 / psy_rd=0.80:0.00 / mixed_ref=1 / me_range=32 / chroma_me=1 / trellis=2 / 8x8dct=1 / cqm=0 / deadzone=21,11 / fast_pskip=0 / chroma_qp_offset=-2 / threads=6 / sliced_threads=0 / nr=0 / decimate=0 / interlaced=0 / constrained_intra=0 / bframes=10 / b_pyramid=2 / b_adapt=2 / b_bias=0 / direct=3 / weightb=1 / open_gop=0 / weightp=2 / keyint=24 / keyint_min=2 / scenecut=40 / intra_refresh=0 / rc_lookahead=24 / rc=2pass / mbtree=1 / bitrate=11777 / ratetol=1.0 / qcomp=0.60 / qpmin=10 / qpmax=51 / qpstep=4 / cplxblur=20.0 / qblur=0.5 / vbv_maxrate=40000 / vbv_bufsize=40000 / nal_hrd=vbr / ip_ratio=1.40 / aq=1:1.00
Язык : English
Основные цвета : BT.709-5, BT.1361, IEC 61966-2-4, SMPTE RP177
Характеристики трансфера : BT.709-5, BT.1361
Коэффициенты матрицы : BT.709-5, BT.1361, IEC 61966-2-4 709, SMPTE RP177
Аудио #1
Идентификатор : 2
Формат : DTS
Формат/Информация : Digital Theater Systems
Идентификатор кодека : A_DTS
Продолжительность : 1 ч. 52 м.
Вид битрейта : Постоянный
Битрейт : 755 Кбит/сек
Канал(ы) : 6 канала(ов)
Расположение каналов : Front: L C R, Side: L R, LFE
Частота : 48,0 КГц
Битовая глубина : 16 бит
Метод сжатия : С потерями
Размер потока : 608 Мбайт (4%)
Заголовок : dub
Язык : Russian
Аудио #2
Идентификатор : 3
Формат : AC-3
Формат/Информация : Audio Coding 3
Расширение режима : CM (complete main)
Идентификатор кодека : A_AC3
Продолжительность : 1 ч. 52 м.
Вид битрейта : Постоянный
Битрейт : 384 Кбит/сек
Канал(ы) : 6 канала(ов)
Расположение каналов : Front: L C R, Side: L R, LFE
Частота : 48,0 КГц
Битовая глубина : 16 бит
Метод сжатия : С потерями
Размер потока : 310 Мбайт (2%)
Заголовок : mvo_kinomaniya
Язык : Russian
Аудио #3
Идентификатор : 4
Формат : DTS
Формат/Информация : Digital Theater Systems
Идентификатор кодека : A_DTS
Продолжительность : 1 ч. 52 м.
Вид битрейта : Постоянный
Битрейт : 1510 Кбит/сек
Канал(ы) : 6 канала(ов)
Расположение каналов : Front: L C R, Side: L R, LFE
Частота : 48,0 КГц
Битовая глубина : 24 бит
Метод сжатия : С потерями
Размер потока : 1,19 Гбайт (9%)
Заголовок : dvo_glanc
Язык : Russian
Аудио #4
Идентификатор : 5
Формат : AC-3
Формат/Информация : Audio Coding 3
Расширение режима : CM (complete main)
Идентификатор кодека : A_AC3
Продолжительность : 1 ч. 52 м.
Вид битрейта : Постоянный
Битрейт : 448 Кбит/сек
Канал(ы) : 6 канала(ов)
Расположение каналов : Front: L C R, Side: L R, LFE
Частота : 48,0 КГц
Битовая глубина : 16 бит
Метод сжатия : С потерями
Размер потока : 361 Мбайт (3%)
Заголовок : dvo_tycoon
Язык : Russian
Аудио #5
Идентификатор : 6
Формат : AC-3
Формат/Информация : Audio Coding 3
Расширение режима : CM (complete main)
Идентификатор кодека : A_AC3
Продолжительность : 1 ч. 52 м.
Вид битрейта : Постоянный
Битрейт : 448 Кбит/сек
Канал(ы) : 6 канала(ов)
Расположение каналов : Front: L C R, Side: L R, LFE
Частота : 48,0 КГц
Битовая глубина : 16 бит
Метод сжатия : С потерями
Размер потока : 361 Мбайт (3%)
Заголовок : avo_gavrilov
Язык : Russian
Аудио #6
Идентификатор : 7
Формат : DTS
Формат/Информация : Digital Theater Systems
Идентификатор кодека : A_DTS
Продолжительность : 1 ч. 52 м.
Вид битрейта : Постоянный
Битрейт : 1510 Кбит/сек
Канал(ы) : 6 канала(ов)
Расположение каналов : Front: L C R, Side: L R, LFE
Частота : 48,0 КГц
Битовая глубина : 24 бит
Метод сжатия : С потерями
Размер потока : 1,19 Гбайт (9%)
Заголовок : english
Язык : English
Текст #1
Идентификатор : 8
Формат : UTF-8
Идентификатор кодека : S_TEXT/UTF8
Идентификатор кодека/Информация : UTF-8 Plain Text
Заголовок : russian
Язык : Russian
Текст #2
Идентификатор : 9
Формат : UTF-8
Идентификатор кодека : S_TEXT/UTF8
Идентификатор кодека/Информация : UTF-8 Plain Text
Заголовок : english
Язык : English
-

Скриншоты

           


Last edited by Omen on 2011-09-12 20:12; edited 2 times in total
Other forum [Profile] [PM]
Display posts from previous:    
Reply to topic

The time now is: Today 18:02

All times are GMT + 3 Hours



You cannot post new topics in this forum
You cannot reply to topics in this forum
You cannot edit your posts in this forum
You cannot delete your posts in this forum
You cannot vote in polls in this forum
You cannot attach files in this forum
You cannot download files in this forum