Today is a free download without charge Download

The Rolling Stones - Gimme Shelter [1970 г., Rock, Documentary, BDRip 720p]

Reply to topic
 
Author
Message

Omen ®

Longevity: 8 years 3 months

Posts: 181087

Торрент-статистика

Post 21-Aug-2013 03:35

[Quote]

The Rolling Stones - Gimme Shelter- Год выпуска: 1970
Жанр: Rock, Documentary
Продолжительность: 01:31:44
Описание: Классический концертный фильм «Gimme Shelter», повествующий о туре The Rolling Stones 1969-го года. В Gimme Shelter звучат такие композиции, как Brown Sugar, Sympathy for the Devil, I Can't Get No) Satisfaction и другие. Особое внимание в фильме уделено трагическим событиям, произошедшем на концерте Rolling Stones в Альтамонте: в ходе выступления группы вооруженный охранник убил одного из зрителей.
-
This musical documentary concerns the Rolling Stones and their tragic free concert at Altamont Speedway near San Francisco in early December 1969. The event was all but destroyed by violence that marked the end of the peace and love euphoria of the 1960s. The night began smoothly, with the supercharged Flying Burrito Brothers opening up for the Rolling Stones and performing the truck-driving classic "Six Days on the Road" and Tina Turner giving a sensually charged performance. But on this particular evening, the Stones made the fateful (and disastrous) decision to hire the Oakland chapter of the Hell's Angels motorcycle gang as bodyguards and bouncers. It was a foolhardy, careless choice that turned the night into an unmitigated disaster; halfway through the Stones' act, the Angels killed one black spectator, and injured several others who were present (including Jefferson Airplane's lead singer Marty Balin). In the film, we watch Mick Jagger -- ere an ebullient, charismatic performer of bisexual charm -- reduced to standing on stage like a frightened child with his finger in his mouth in wake of the violence. Unsurprisingly, the Grateful Dead refused to perform after the violence erupted; the picture ends on a despairing note, with the Stones repeatedly watching a film of the murder. Celebrated documentarians Albert and David Maysles directed and Haskell Wexler shot the film, with heightened instinct and control; as a result, this film is considered one of the greatest rock documentaries ever made. Stones songs performed include "Brown Sugar," "Under My Thumb," and "Sympathy for the Devil."
-Доп. информация: Автор: CLASSiC
Качество: BDRip 720p Формат: MKV
Видео: 960x720 (4:3), 23,976 fps, x264 ~5312 kbps avg, 0.321 bit/pixel
Аудио: 48 kHz, Digital Theater Systems, 3/2 (L,C,R,l,r) + LFE ch, 1509 kbps

Mediainfo

ОбщееУникальный идентификатор : 234036566189482932789345301916584022869 (0xB011CD975847B2C699BD38A6CDF49355)Полное имя : The.Rolling.Stones.Gimme.Shelter.1970.720p.BluRay.x264.mkvФормат : MatroskaВерсия формата : Version 2Размер файла : 4,37 ГбайтПродолжительность : 1 ч. 31 м.Общий поток : 6822 Кбит/секДата кодирования : UTC 2009-11-29 09:38:52Программа кодирования : mkvmerge v2.9.8 ('C'est le bon') built on Aug 13 2009 12:49:06Библиотека кодирования : libebml v0.7.7 + libmatroska v0.8.1
ВидеоИдентификатор : 1Формат : AVCФормат/Информация : Advanced Video CodecПрофиль формата : [email protected]Параметр CABAC формата : ДаПараметр ReFrames формата : 5 кадровИдентификатор кодека : V_MPEG4/ISO/AVCПродолжительность : 1 ч. 31 м.Битрейт : 5312 Кбит/секШирина : 960 пикселейВысота : 720 пикселейСоотношение сторон : 4:3Режим частоты кадров : ПостоянныйЧастота кадров : 23,976 кадра/секЦветовое пространство : YUVСубдискретизация насыщенности : 4:2:0Битовая глубина : 8 битТип развёртки : ПрогрессивнаяБит/(Пиксели*Кадры) : 0.321Размер потока : 3,32 Гбайт (76%)Библиотека кодирования : x264 core 79 r1352 d487de4Настройки программы : cabac=1 / ref=5 / deblock=1:0:0 / analyse=0x3:0x133 / me=umh / subme=8psy=1 / psy_rd=1.0:0.0 / mixed_ref=1 / me_range=16 / chroma_me=1 / trellis=1 / 8x8dct=1 / cqm=0 / deadzone=21,11chroma_qp_offset=-2 / threads=6 / nr=0 / decimate=1 / mbaff=0 / constrained_intra=0 / bframes=3 / b_pyramid=0b_adapt=1 / b_bias=0 / direct=1 / wpredb=1 / wpredp=2 / keyint=250 / keyint_min=25 / scenecut=40 / rc_lookahead=40rc=2pass / mbtree=1 / bitrate=5312 / ratetol=1.0 / qcomp=0.60 / qpmin=10 / qpmax=51 / qpstep=4 / cplxblur=20.0qblur=0.5 / ip_ratio=1.40 / aq=1:1.00Язык : EnglishDefault : НетForced : Нет
АудиоИдентификатор : 2Формат : DTSФормат/Информация : Digital Theater SystemsРежим : 16Параметр Endianness формата : BigИдентификатор кодека : A_DTSПродолжительность : 1 ч. 31 м.Вид битрейта : ПостоянныйБитрейт : 1509 Кбит/секКаналы : 6 каналовРасположение каналов : Front: L C R, Side: L R, LFEЧастота : 48,0 КГцБитовая глубина : 24 битМетод сжатия : С потерямиРазмер потока : 990 Мбайт (22%)Язык : EnglishDefault : ДаForced : Нет

Скриншоты


Other forum [Profile] [PM]
Display posts from previous:    
Reply to topic

The time now is: Today 11:21

All times are GMT + 3 Hours



You cannot post new topics in this forum
You cannot reply to topics in this forum
You cannot edit your posts in this forum
You cannot delete your posts in this forum
You cannot vote in polls in this forum
You cannot attach files in this forum
You cannot download files in this forum