Today is a free download without charge Download

(OST) Free! / Free! Iwatobi Swim Club [4CD] [FLAC, image+.cue, lossless] [2013 г.]

Reply to topic
 
Author
Message

Omen ®

Longevity: 9 years

Posts: 181086

Торрент-статистика

Post 20-Aug-2013 22:18

[Quote]

Free! / Free! Iwatobi Swim Club / フリー!
Страна: Япония
Продолжительность: 1.09.13
Аудио кодек: FLAC (*.flac)
Тип рипа: image+.cue
Описание: раздача музыки, связанной с аниме Free!.
Обновляться будет по мере появления дисков в сети.

[AR] Free! OP Single - Rage on [OLDCODEX]

Дата выпуска: 13 июля 2013 г.
Каталог: LACM-14110
Тип рипа: image+.cue
Продолжительность: 12.29
Наличие сканов в содержимом раздачи: да
Треклист:
1) Rage on
2) Now I am
3) Rage on (Instrumental).

Лог проверки качества

Exact Audio Copy V1.0 beta 3 from 29. August 2011
EAC extraction logfile from 17. July 2013, 18:05
OLDCODEX / Rage on
Used drive : ATAPI DVD A DH16A3L Adapter: 1 ID: 0
Read mode : SecureUtilize accurate stream : YesDefeat audio cache : YesMake use of C2 pointers : No
Read offset correction : 6Overread into Lead-In and Lead-Out : NoFill up missing offset samples with silence : YesDelete leading and trailing silent blocks : NoNull samples used in CRC calculations : YesUsed interface : Native Win32 interface for Win NT & 2000
Used output format : Internal WAV RoutinesSample format : 44.100 Hz; 16 Bit; Stereo
TOC of the extracted CD
Track | Start | Length | Start sector | End sector --------------------------------------------------------- 1 | 0:00.00 | 4:21.56 | 0 | 19630 2 | 4:21.56 | 3:44.71 | 19631 | 36501 3 | 8:06.52 | 4:22.07 | 36502 | 56158
Range status and errors
Selected range
Filename G:\OLDCODEX - Rage on.wav
Peak level 100.0 % Extraction speed 5.3 X Range quality 100.0 % Test CRC 3A13701D Copy CRC 3A13701D Copy OK
No errors occurred
End of status report
==== Log checksum 5C754E25E2F7226EB79F390CDE38D78253E8812AFE920FEB69D3BA88F02CAEDA ====

[AR] Free! ED Single - SPLASH FREE [STYLE FIVE]

Дата выпуска: 07 августа 2013 г.
Каталог: LACM-14130
Тип рипа: image+.cue
Продолжительность: 19.38
Наличие сканов в содержимом раздачи: да
Треклист:
1) SPLASH FREE;
2) Water Surprise!;
3) SPLASH FREE -DJ Chika a.k.a Inherit REMIX-;
4) SPLASH FREE (OFF VOCAL);
5) Water Surprise! (OFF VOCAL).

Лог проверки качества

Exact Audio Copy V1.0 beta 3 from 29. August 2011
EAC extraction logfile from 7. August 2013, 18:18
STYLE FIVE (七瀬遙・橘真琴・松岡凛・葉月渚・竜ヶ崎怜) / SPLASH FREE
Used drive : ATAPI DVD A DH16A3L Adapter: 1 ID: 0
Read mode : SecureUtilize accurate stream : YesDefeat audio cache : YesMake use of C2 pointers : No
Read offset correction : 6Overread into Lead-In and Lead-Out : NoFill up missing offset samples with silence : YesDelete leading and trailing silent blocks : NoNull samples used in CRC calculations : YesUsed interface : Native Win32 interface for Win NT & 2000
Used output format : Internal WAV RoutinesSample format : 44.100 Hz; 16 Bit; Stereo
TOC of the extracted CD
Track | Start | Length | Start sector | End sector --------------------------------------------------------- 1 | 0:00.00 | 3:58.32 | 0 | 17881 2 | 3:58.32 | 3:58.03 | 17882 | 35734 3 | 7:56.35 | 3:45.70 | 35735 | 52679 4 | 11:42.30 | 3:58.20 | 52680 | 70549 5 | 15:40.50 | 3:57.43 | 70550 | 88367
Range status and errors
Selected range
Filename G:\STYLE FIVE (七瀬遙・橘真琴・松岡凛・葉月渚・竜ヶ崎怜) - SPLASH FREE.wav
Peak level 100.0 % Extraction speed 5.5 X Range quality 99.9 % Test CRC 092DA8EF Copy CRC 092DA8EF Copy OK
No errors occurred
End of status report
==== Log checksum 2DB593C7C2ED15354DB7AC4E37AFB24527BDD601EE0811410DB7782937FA1EF8 ====

[AR] Free! Character Song Vol.1 Nanase Haruka [Shimazaki Nobunaga]

Дата выпуска: 07 августа 2013 г.
Каталог: LACM-14121
Тип рипа: image+.cue
Продолжительность: 19.16
Наличие сканов в содержимом раздачи: да
Треклист:
1) アオノカナタ;
2) JOY;
3) アオノカナタ (OFF VOCAL);
4) JOY (OFF VOCAL).

Лог проверки качества

Exact Audio Copy V1.0 beta 3 from 29. August 2011
EAC extraction logfile from 7. August 2013, 19:02
七瀬遙(CV.島﨑信長) / TVアニメ『Free!』キャラクターソング Vol.1 七瀬遙(CV.島﨑信長)
Used drive : ATAPI DVD A DH16A3L Adapter: 1 ID: 0
Read mode : SecureUtilize accurate stream : YesDefeat audio cache : YesMake use of C2 pointers : No
Read offset correction : 6Overread into Lead-In and Lead-Out : NoFill up missing offset samples with silence : YesDelete leading and trailing silent blocks : NoNull samples used in CRC calculations : YesUsed interface : Native Win32 interface for Win NT & 2000
Used output format : Internal WAV RoutinesSample format : 44.100 Hz; 16 Bit; Stereo
TOC of the extracted CD
Track | Start | Length | Start sector | End sector --------------------------------------------------------- 1 | 0:00.00 | 4:37.05 | 0 | 20779 2 | 4:37.05 | 5:03.08 | 20780 | 43512 3 | 9:40.13 | 4:36.67 | 43513 | 64279 4 | 14:17.05 | 4:59.26 | 64280 | 86730
Range status and errors
Selected range
Filename G:\七瀬遙(CV.島﨑信長) - TVアニメ『Free!』キャラクターソング Vol.1 七瀬遙(CV.島﨑信長).wav
Peak level 100.0 % Extraction speed 5.7 X Range quality 100.0 % Test CRC DB7AA7A3 Copy CRC DB7AA7A3 Copy OK
No errors occurred
End of status report
==== Log checksum E226A87C6C7B9DD45F64A786A673F23E8DF599A373C813BE37B94738078B4232 ====

[AR] Free! Character Song Vol.2 Tachibana Makoto [Suzuki Tatsuhisa]

Дата выпуска: 07 августа 2013 г.
Каталог: LACM-14122
Тип рипа: image+.cue
Продолжительность: 17.49
Наличие сканов в содержимом раздачи: да
Треклист:
1) 未来へのストローク;
2) 潮風のfriendship;
3) 未来へのストローク (OFF VOCAL);
4) 潮風のfriendship (OFF VOCAL).

Лог проверки качества

Exact Audio Copy V1.0 beta 3 from 29. August 2011
EAC extraction logfile from 7. August 2013, 19:22
橘真琴(CV.鈴木達央) / TVアニメ『Free!』キャラクターソング Vol.2 橘真琴(CV.鈴木達央)
Used drive : ATAPI DVD A DH16A3L Adapter: 1 ID: 0
Read mode : SecureUtilize accurate stream : YesDefeat audio cache : YesMake use of C2 pointers : No
Read offset correction : 6Overread into Lead-In and Lead-Out : NoFill up missing offset samples with silence : YesDelete leading and trailing silent blocks : NoNull samples used in CRC calculations : YesUsed interface : Native Win32 interface for Win NT & 2000
Used output format : Internal WAV RoutinesSample format : 44.100 Hz; 16 Bit; Stereo
TOC of the extracted CD
Track | Start | Length | Start sector | End sector --------------------------------------------------------- 1 | 0:00.00 | 4:11.23 | 0 | 18847 2 | 4:11.23 | 4:44.37 | 18848 | 40184 3 | 8:55.60 | 4:10.40 | 40185 | 58974 4 | 13:06.25 | 4:42.67 | 58975 | 80191
Range status and errors
Selected range
Filename G:\橘真琴(CV.鈴木達央) - TVアニメ『Free!』キャラクターソング Vol.2 橘真琴(CV.鈴木達央).wav
Peak level 100.0 % Extraction speed 4.5 X Range quality 100.0 % Test CRC DC1A8327 Copy CRC DC1A8327 Copy OK
No errors occurred
End of status report
==== Log checksum 1B1F98DE998AFCAC6BD7A2C171C6AE1AB18065F8D6CA885F0F0E4DBA08DADB34 ====

-
-[AR] — данное обозначение свидетельствует о том, что рип сделан в соответствии с данными настройками и является максимально точным.-

FAQ

В: Когда тут появится "N-ый" альбом?
О: После его выхода (узнать дату выхода можно, например, на cdjapan), загрузки в интернеты и появления у меня свободного времени.
В: Почему скорость маленькая?
О: Моя исходящая скорость равна 1мбиту, ничего с этим поделать не могу.
В: А как называется трек из "N-ой" серии, играющий на "X" минуте?
О: Рекомендую скачать саундтрек и поискать самим — быстрее будет.
В: Почему треки не разделены?
О: Правилами запрещено менять форм-фактор. Да и раздачи образом мне больше нравятся, если честно.
В: Я нашёл ошибку в оформлении/раздаче.
О: Пожалуйста, напишите мне в личку об этом.
В: Как можно отслеживать релизы?
О: Используя фид на весь раздел остов в лосе (или только мои релизы)).
Other forum [Profile] [PM]
Display posts from previous:    
Reply to topic

The time now is: Today 18:18

All times are GMT + 3 Hours



You cannot post new topics in this forum
You cannot reply to topics in this forum
You cannot edit your posts in this forum
You cannot delete your posts in this forum
You cannot vote in polls in this forum
You cannot attach files in this forum
You cannot download files in this forum