Today is a free download without charge Download

(Soundtrack) Мастера ужасов / Masters of Horror - 2005 [FLAC (tracks+.cue) lossless]

Reply to topic
 
Author
Message

Nugeiro ®

Gender:

Longevity: 10 years

Posts: 1981

Location: Украина, Шостка

Торрент-статистика

Post 12-Sep-2011 17:35

[Quote]

Мастера ужасов / Masters of Horror- Жанр: Soundtrack
Год выпуска диска: 2005
Производитель диска: USA
Аудио кодек: FLAC
Тип рипа: tracks+.cue
Битрейт аудио: lossless
Продолжительность: 00:54:42+00:55:12
-CD1:
01 - Mudvayne - Small Silhouette (03:02)
02 - Norma Jean - Shaunluu (03:43)
03 - It Dies Today - Enjoy The Silence (04:01)
04 - Funeral For A Friend - Lazarus (In The Wilderness) (02:48)
05 - Andrew W.K. - You Will Remember Tonight (03:25)
06 - Armor For Sleep - Very Invisible (04:22)
07 - Scary Kids Scaring Kids - What's Up Now (04:24)
08 - Shadows Fall - This Is My Own (04:47)
09 - The Bled - Nervous Breakdown (02:08)
10 - Murder By Death - End Of The Road (04:00)
11 - Thursday - Division St. (Acoustic) (04:35)
12 - Bloodsimple - Overload (03:23)
13 - Mastodon - Megalodon (Live) (04:39)
14 - Death By Stereo - Bottled Up (03:07)
15 - Fall River - At Least You Bought Her Flowers (02:19)-CD2:
01 - Buckethead feat. Serj Tankian - We Are One (04:02)
02 - Rise Against - Obstructed (02:02)
03 - The Bronx - Bats!!! (02:24)
04 - From Autumn To Ashes - Betwixt Her Getaway Sticks (03:10)
05 - Every Time I Die - Keith The Music (03:14)
06 - Matchbook Romance - In Transit (For You) (05:21)
07 - Bedlight For Blue Eyes - Hindsight (04:03)
08 - Alkaline Trio - We Can Never Break Up (03:09)
09 - Avenged Sevenfold - Beast And The Harlot (Live) (06:05)
10 - In Flames - Discover Me Like Emptiness (04:12)
11 - A Change Of Pace - The Thin Red Line (02:51)
12 - Bear vs Shark - Victoria Iceberg (03:57)
13 - Gratitude - If Ever (Acoustic) (03:52)
14 - Fear Before The March Of Flames - 237 (03:17)
15 - Yesterday's Rising - Contrast Of Light And Dark (03:33)
-

LOG CD1

Exact Audio Copy V0.99 prebeta 5 from 4. May 2009
EAC extraction logfile from 15. June 2010, 13:47
Various / Masters of Horror [2CD] {Disc 1}
Used drive : PLEXTOR CD-R PREMIUM Adapter: 0 ID: 1
Read mode : SecureUtilize accurate stream : YesDefeat audio cache : YesMake use of C2 pointers : No
Read offset correction : 30Overread into Lead-In and Lead-Out : YesFill up missing offset samples with silence : YesDelete leading and trailing silent blocks : NoNull samples used in CRC calculations : YesUsed interface : Native Win32 interface for Win NT & 2000Gap handling : Appended to previous track
Used output format : User Defined EncoderSelected bitrate : 128 kBit/sQuality : HighAdd ID3 tag : NoCommand line compressor : C:\Program Files\FLAC 1.2.1b\flac.exeAdditional command line options : -8 -V -T "ARTIST=%a" -T "TITLE=%t" -T "ALBUM=%g" -T "DATE=%y" -T "TRACKNUMBER=%n" -T "TOTALTRACKS=%x" -T "GENRE=%m" -T "ALBUM ARTIST=%v" -T "ALBUMARTIST=%v" %s
TOC of the extracted CD
Track | Start | Length | Start sector | End sector --------------------------------------------------------- 1 | 0:00.00 | 3:02.17 | 0 | 13666 2 | 3:02.17 | 3:43.32 | 13667 | 30423 3 | 6:45.49 | 4:00.48 | 30424 | 48471 4 | 10:46.22 | 2:47.39 | 48472 | 61035 5 | 13:33.61 | 3:24.59 | 61036 | 76394 6 | 16:58.45 | 4:22.36 | 76395 | 96080 7 | 21:21.06 | 4:23.58 | 96081 | 115863 8 | 25:44.64 | 4:46.42 | 115864 | 137355 9 | 30:31.31 | 2:07.48 | 137356 | 146928 10 | 32:39.04 | 4:00.13 | 146929 | 164941 11 | 36:39.17 | 4:34.43 | 164942 | 185534 12 | 41:13.60 | 3:23.27 | 185535 | 200786 13 | 44:37.12 | 4:38.49 | 200787 | 221685 14 | 49:15.61 | 3:07.16 | 221686 | 235726 15 | 52:23.02 | 2:19.30 | 235727 | 246181 16 | 57:14.32 | 1:52.46 | 257582 | 266027
Track 1
Filename C:\EAC Output\Various Artists - 2005 - Masters of Horror [2CD] {Disc 1}\01 - Mudvayne - Small Silhouette.wav
Pre-gap length 0:00:02.00
Peak level 86.1 % Track quality 100.0 % Test CRC FCC3F552 Copy CRC FCC3F552 Accurately ripped (confidence 2) [799A138E] Copy OK
Track 2
Filename C:\EAC Output\Various Artists - 2005 - Masters of Horror [2CD] {Disc 1}\02 - Norma Jean - Shaunluu.wav
Peak level 96.6 % Track quality 100.0 % Test CRC 9E13D515 Copy CRC 9E13D515 Accurately ripped (confidence 2) [FEC01164] Copy OK
Track 3
Filename C:\EAC Output\Various Artists - 2005 - Masters of Horror [2CD] {Disc 1}\03 - It Dies Today - Enjoy The Silence.wav
Peak level 92.5 % Track quality 100.0 % Test CRC BEC7DACF Copy CRC BEC7DACF Accurately ripped (confidence 2) [F9E4ACFB] Copy OK
Track 4
Filename C:\EAC Output\Various Artists - 2005 - Masters of Horror [2CD] {Disc 1}\04 - Funeral For A Friend - Lazarus (In The Wilderness).wav
Peak level 86.1 % Track quality 100.0 % Test CRC FFA6F572 Copy CRC FFA6F572 Accurately ripped (confidence 2) [57C9550F] Copy OK
Track 5
Filename C:\EAC Output\Various Artists - 2005 - Masters of Horror [2CD] {Disc 1}\05 - Andrew W.K. - You Will Remember Tonight.wav
Peak level 96.6 % Track quality 100.0 % Test CRC 3173C44E Copy CRC 3173C44E Accurately ripped (confidence 2) [6C84F757] Copy OK
Track 6
Filename C:\EAC Output\Various Artists - 2005 - Masters of Horror [2CD] {Disc 1}\06 - Armor For Sleep - Very Invisible.wav
Peak level 96.6 % Track quality 100.0 % Test CRC 2694F562 Copy CRC 2694F562 Accurately ripped (confidence 2) [3B56C96A] Copy OK
Track 7
Filename C:\EAC Output\Various Artists - 2005 - Masters of Horror [2CD] {Disc 1}\07 - Scary Kids Scaring Kids - What's Up Now.wav
Peak level 96.6 % Track quality 100.0 % Test CRC AFDB63A2 Copy CRC AFDB63A2 Accurately ripped (confidence 2) [316A2CEC] Copy OK
Track 8
Filename C:\EAC Output\Various Artists - 2005 - Masters of Horror [2CD] {Disc 1}\08 - Shadows Fall - This Is My Own.wav
Peak level 93.3 % Track quality 99.9 % Test CRC 59249EF2 Copy CRC 59249EF2 Accurately ripped (confidence 2) [E44C9F0D] Copy OK
Track 9
Filename C:\EAC Output\Various Artists - 2005 - Masters of Horror [2CD] {Disc 1}\09 - The Bled - Nervous Breakdown.wav
Peak level 96.6 % Track quality 100.0 % Test CRC 89E716A5 Copy CRC 89E716A5 Accurately ripped (confidence 2) [B736A1FB] Copy OK
Track 10
Filename C:\EAC Output\Various Artists - 2005 - Masters of Horror [2CD] {Disc 1}\10 - Murder By Death - End Of The Road.wav
Peak level 86.1 % Track quality 100.0 % Test CRC 8361330E Copy CRC 8361330E Accurately ripped (confidence 2) [D830E5AF] Copy OK
Track 11
Filename C:\EAC Output\Various Artists - 2005 - Masters of Horror [2CD] {Disc 1}\11 - Thursday - Division St. (Acoustic).wav
Peak level 96.6 % Track quality 100.0 % Test CRC 1D0B6AC1 Copy CRC 1D0B6AC1 Accurately ripped (confidence 2) [FDFC9D7C] Copy OK
Track 12
Filename C:\EAC Output\Various Artists - 2005 - Masters of Horror [2CD] {Disc 1}\12 - Bloodsimple - Overload.wav
Peak level 95.5 % Track quality 100.0 % Test CRC 66898E59 Copy CRC 66898E59 Accurately ripped (confidence 2) [3BBDA1DF] Copy OK
Track 13
Filename C:\EAC Output\Various Artists - 2005 - Masters of Horror [2CD] {Disc 1}\13 - Mastodon - Megalodon (Live from Europe 2004).wav
Peak level 96.6 % Track quality 100.0 % Test CRC 2956B5F5 Copy CRC 2956B5F5 Accurately ripped (confidence 2) [DCCFE964] Copy OK
Track 14
Filename C:\EAC Output\Various Artists - 2005 - Masters of Horror [2CD] {Disc 1}\14 - Death By Stereo - Bottled Up.wav
Peak level 96.6 % Track quality 100.0 % Test CRC 0E94A5AD Copy CRC 0E94A5AD Accurately ripped (confidence 2) [3DE207CF] Copy OK
Track 15
Filename C:\EAC Output\Various Artists - 2005 - Masters of Horror [2CD] {Disc 1}\15 - Fall River - At Least You Bought Her Flowers.wav
Peak level 96.6 % Track quality 100.0 % Test CRC DBD8FFEC Copy CRC DBD8FFEC Accurately ripped (confidence 2) [22D347F5] Copy OK
All tracks accurately ripped
No errors occurred
End of status report

CUE CD1

REM GENRE RockREM DATE 2005REM DISCID DE0DDB10REM COMMENT "ExactAudioCopy v0.99pb5"PERFORMER "Various"TITLE "Masters of Horror [2CD] {Disc 1}"FILE "01 - Mudvayne - Small Silhouette.wav" WAVE TRACK 01 AUDIO TITLE "Small Silhouette" PERFORMER "Mudvayne" ISRC USI2R0570101 FLAGS DCP INDEX 01 00:00:00FILE "02 - Norma Jean - Shaunluu.wav" WAVE TRACK 02 AUDIO TITLE "Shaunluu" PERFORMER "Norma Jean" ISRC USTN10500261 FLAGS DCP INDEX 01 00:00:00FILE "03 - It Dies Today - Enjoy The Silence.wav" WAVE TRACK 03 AUDIO TITLE "Enjoy The Silence" PERFORMER "It Dies Today" ISRC USI2R0570103 FLAGS DCP INDEX 01 00:00:00FILE "04 - Funeral For A Friend - Lazarus (In The Wilderness).wav" WAVE TRACK 04 AUDIO TITLE "Lazarus (In The Wilderness)" PERFORMER "Funeral For A Friend" ISRC USI2R0570104 FLAGS DCP INDEX 01 00:00:00FILE "05 - Andrew W.K. - You Will Remember Tonight.wav" WAVE TRACK 05 AUDIO TITLE "You Will Remember Tonight" PERFORMER "Andrew W.K." ISRC USI2R0570105 FLAGS DCP INDEX 01 00:00:00FILE "06 - Armor For Sleep - Very Invisible.wav" WAVE TRACK 06 AUDIO TITLE "Very Invisible" PERFORMER "Armor For Sleep" ISRC USI2R0570106 FLAGS DCP INDEX 01 00:00:00FILE "07 - Scary Kids Scaring Kids - What's Up Now.wav" WAVE TRACK 07 AUDIO TITLE "What's Up Now" PERFORMER "Scary Kids Scaring Kids" ISRC USI2R0550213 FLAGS DCP INDEX 01 00:00:00FILE "08 - Shadows Fall - This Is My Own.wav" WAVE TRACK 08 AUDIO TITLE "This Is My Own" PERFORMER "Shadows Fall" ISRC USI2R0570108 FLAGS DCP INDEX 01 00:00:00FILE "09 - The Bled - Nervous Breakdown.wav" WAVE TRACK 09 AUDIO TITLE "Nervous Breakdown" PERFORMER "The Bled" ISRC USI2R0570109 FLAGS DCP INDEX 01 00:00:00FILE "10 - Murder By Death - End Of The Road.wav" WAVE TRACK 10 AUDIO TITLE "End Of The Road" PERFORMER "Murder By Death" ISRC USI2R0570110 FLAGS DCP INDEX 01 00:00:00FILE "11 - Thursday - Division St. (Acoustic).wav" WAVE TRACK 11 AUDIO TITLE "Division St. (Acoustic)" PERFORMER "Thursday" ISRC USI2R0570111 FLAGS DCP INDEX 01 00:00:00FILE "12 - Bloodsimple - Overload.wav" WAVE TRACK 12 AUDIO TITLE "Overload" PERFORMER "Bloodsimple" ISRC USI2R0570112 FLAGS DCP INDEX 01 00:00:00FILE "13 - Mastodon - Megalodon (Live from Europe 2004).wav" WAVE TRACK 13 AUDIO TITLE "Megalodon (Live from Europe 2004)" PERFORMER "Mastodon" ISRC USI2R0570113 FLAGS DCP INDEX 01 00:00:00FILE "14 - Death By Stereo - Bottled Up.wav" WAVE TRACK 14 AUDIO TITLE "Bottled Up" PERFORMER "Death By Stereo" ISRC USI2R0570114 FLAGS DCP INDEX 01 00:00:00FILE "15 - Fall River - At Least You Bought Her Flowers.wav" WAVE TRACK 15 AUDIO TITLE "At Least You Bought Her Flowers" PERFORMER "Fall River" ISRC USI2R0570115 FLAGS DCP INDEX 01 00:00:00

LOG CD2

Exact Audio Copy V0.99 prebeta 5 from 4. May 2009
EAC extraction logfile from 15. June 2010, 14:11
Various / Masters of Horror [2CD] {Disc 2}
Used drive : PLEXTOR CD-R PREMIUM Adapter: 0 ID: 1
Read mode : SecureUtilize accurate stream : YesDefeat audio cache : YesMake use of C2 pointers : No
Read offset correction : 30Overread into Lead-In and Lead-Out : YesFill up missing offset samples with silence : YesDelete leading and trailing silent blocks : NoNull samples used in CRC calculations : YesUsed interface : Native Win32 interface for Win NT & 2000Gap handling : Appended to previous track
Used output format : User Defined EncoderSelected bitrate : 128 kBit/sQuality : HighAdd ID3 tag : NoCommand line compressor : C:\Program Files\FLAC 1.2.1b\flac.exeAdditional command line options : -8 -V -T "ARTIST=%a" -T "TITLE=%t" -T "ALBUM=%g" -T "DATE=%y" -T "TRACKNUMBER=%n" -T "TOTALTRACKS=%x" -T "GENRE=%m" -T "ALBUM ARTIST=%v" -T "ALBUMARTIST=%v" %s
TOC of the extracted CD
Track | Start | Length | Start sector | End sector --------------------------------------------------------- 1 | 0:00.00 | 4:01.65 | 0 | 18139 2 | 4:01.65 | 2:02.35 | 18140 | 27324 3 | 6:04.25 | 2:24.18 | 27325 | 38142 4 | 8:28.43 | 3:10.09 | 38143 | 52401 5 | 11:38.52 | 3:14.32 | 52402 | 66983 6 | 14:53.09 | 5:20.61 | 66984 | 91044 7 | 20:13.70 | 4:03.35 | 91045 | 109304 8 | 24:17.30 | 3:08.67 | 109305 | 123471 9 | 27:26.22 | 6:04.48 | 123472 | 150819 10 | 33:30.70 | 4:11.39 | 150820 | 169683 11 | 37:42.34 | 2:51.21 | 169684 | 182529 12 | 40:33.55 | 3:56.54 | 182530 | 200283 13 | 44:30.34 | 3:52.21 | 200284 | 217704 14 | 48:22.55 | 3:16.52 | 217705 | 232456 15 | 51:39.32 | 3:32.61 | 232457 | 248417 16 | 57:44.18 | 1:52.48 | 259818 | 268265
Track 1
Filename C:\EAC Output\Various Artists - 2005 - Masters of Horror [2CD] {Disc 2}\01 - Buckethead feat. Serj Tankian - We Are One.wav
Pre-gap length 0:00:02.00
Peak level 96.6 % Track quality 100.0 % Test CRC 28E25B5E Copy CRC 28E25B5E Accurately ripped (confidence 2) [E35CBAA3] Copy OK
Track 2
Filename C:\EAC Output\Various Artists - 2005 - Masters of Horror [2CD] {Disc 2}\02 - Rise Against - Obstructed.wav
Peak level 96.6 % Track quality 100.0 % Test CRC 5F3445FD Copy CRC 5F3445FD Accurately ripped (confidence 2) [38E90D4E] Copy OK
Track 3
Filename C:\EAC Output\Various Artists - 2005 - Masters of Horror [2CD] {Disc 2}\03 - The Bronx - Bats!!!.wav
Peak level 96.6 % Track quality 100.0 % Test CRC 43565334 Copy CRC 43565334 Accurately ripped (confidence 2) [D37AFD6F] Copy OK
Track 4
Filename C:\EAC Output\Various Artists - 2005 - Masters of Horror [2CD] {Disc 2}\04 - From Autumn To Ashes - Betwixt Her Getaway Sticks.wav
Peak level 96.6 % Track quality 100.0 % Test CRC A07EF30A Copy CRC A07EF30A Accurately ripped (confidence 2) [37F0D7FF] Copy OK
Track 5
Filename C:\EAC Output\Various Artists - 2005 - Masters of Horror [2CD] {Disc 2}\05 - Every Time I Die - Keith The Music.wav
Peak level 96.6 % Track quality 100.0 % Test CRC B0823FB1 Copy CRC B0823FB1 Accurately ripped (confidence 2) [32F73218] Copy OK
Track 6
Filename C:\EAC Output\Various Artists - 2005 - Masters of Horror [2CD] {Disc 2}\06 - Matchbook Romance - In Transit (For You).wav
Peak level 95.6 % Track quality 100.0 % Test CRC D1765B7F Copy CRC D1765B7F Accurately ripped (confidence 2) [D32A9923] Copy OK
Track 7
Filename C:\EAC Output\Various Artists - 2005 - Masters of Horror [2CD] {Disc 2}\07 - Bedlight For Blue Eyes - Hindsight.wav
Peak level 97.1 % Track quality 100.0 % Test CRC 0F20A8A3 Copy CRC 0F20A8A3 Accurately ripped (confidence 2) [85595113] Copy OK
Track 8
Filename C:\EAC Output\Various Artists - 2005 - Masters of Horror [2CD] {Disc 2}\08 - Alkaline Trio - We Can Never Break Up.wav
Peak level 96.6 % Track quality 100.0 % Test CRC 0AA56A0C Copy CRC 0AA56A0C Accurately ripped (confidence 2) [6093F0F9] Copy OK
Track 9
Filename C:\EAC Output\Various Artists - 2005 - Masters of Horror [2CD] {Disc 2}\09 - Avenged Sevenfold - Beast And The Harlot (Live from Warped Tour 2005).wav
Peak level 96.6 % Track quality 100.0 % Test CRC E3E82E1F Copy CRC E3E82E1F Accurately ripped (confidence 2) [A696002D] Copy OK
Track 10
Filename C:\EAC Output\Various Artists - 2005 - Masters of Horror [2CD] {Disc 2}\10 - In Flames - Discover Me Like Emptiness.wav
Peak level 94.4 % Track quality 100.0 % Test CRC 69BFCA34 Copy CRC 69BFCA34 Accurately ripped (confidence 2) [839961B8] Copy OK
Track 11
Filename C:\EAC Output\Various Artists - 2005 - Masters of Horror [2CD] {Disc 2}\11 - A Change Of Pace - The Thin Red Line.wav
Peak level 96.6 % Track quality 100.0 % Test CRC 8021A0D7 Copy CRC 8021A0D7 Accurately ripped (confidence 2) [287A7B03] Copy OK
Track 12
Filename C:\EAC Output\Various Artists - 2005 - Masters of Horror [2CD] {Disc 2}\12 - Bear vs Shark - Victoria Iceberg.wav
Peak level 96.6 % Track quality 100.0 % Test CRC 51BB9C80 Copy CRC 51BB9C80 Accurately ripped (confidence 2) [85F65025] Copy OK
Track 13
Filename C:\EAC Output\Various Artists - 2005 - Masters of Horror [2CD] {Disc 2}\13 - Gratitude - If Ever (Acoustic).wav
Peak level 96.5 % Track quality 100.0 % Test CRC 4390024D Copy CRC 4390024D Accurately ripped (confidence 2) [D8BEE3AA] Copy OK
Track 14
Filename C:\EAC Output\Various Artists - 2005 - Masters of Horror [2CD] {Disc 2}\14 - Fear Before The March Of Flames - 237.wav
Peak level 96.6 % Track quality 100.0 % Test CRC 29CF3DAA Copy CRC 29CF3DAA Accurately ripped (confidence 2) [FB15C4D2] Copy OK
Track 15
Filename C:\EAC Output\Various Artists - 2005 - Masters of Horror [2CD] {Disc 2}\15 - Yesterday's Rising - Contrast Of Light And Dark.wav
Peak level 96.6 % Track quality 100.0 % Test CRC EE4388EA Copy CRC EE4388EA Accurately ripped (confidence 2) [9E566745] Copy OK
All tracks accurately ripped
No errors occurred
End of status report

CUE CD2

REM GENRE RockREM DATE 2005REM DISCID C50DF810REM COMMENT "ExactAudioCopy v0.99pb5"PERFORMER "Various"TITLE "Masters of Horror [2CD] {Disc 2}"FILE "01 - Buckethead feat. Serj Tankian - We Are One.wav" WAVE TRACK 01 AUDIO TITLE "We Are One" PERFORMER "Buckethead feat. Serj Tankian" ISRC USI2R0570116 FLAGS DCP INDEX 01 00:00:00FILE "02 - Rise Against - Obstructed.wav" WAVE TRACK 02 AUDIO TITLE "Obstructed" PERFORMER "Rise Against" ISRC USI2R0570117 FLAGS DCP INDEX 01 00:00:00FILE "03 - The Bronx - Bats!!!.wav" WAVE TRACK 03 AUDIO TITLE "Bats!!!" PERFORMER "The Bronx" ISRC USI2R0570118 FLAGS DCP INDEX 01 00:00:00FILE "04 - From Autumn To Ashes - Betwixt Her Getaway Sticks.wav" WAVE TRACK 04 AUDIO TITLE "Betwixt Her Getaway Sticks" PERFORMER "From Autumn To Ashes" ISRC USI2R0570119 FLAGS DCP INDEX 01 00:00:00FILE "05 - Every Time I Die - Keith The Music.wav" WAVE TRACK 05 AUDIO TITLE "Keith The Music" PERFORMER "Every Time I Die" ISRC USI2R0570120 FLAGS DCP INDEX 01 00:00:00FILE "06 - Matchbook Romance - In Transit (For You).wav" WAVE TRACK 06 AUDIO TITLE "In Transit (For You)" PERFORMER "Matchbook Romance" ISRC USI2R0570121 FLAGS DCP INDEX 01 00:00:00FILE "07 - Bedlight For Blue Eyes - Hindsight.wav" WAVE TRACK 07 AUDIO TITLE "Hindsight" PERFORMER "Bedlight For Blue Eyes" ISRC USI2R0570122 FLAGS DCP INDEX 01 00:00:00FILE "08 - Alkaline Trio - We Can Never Break Up.wav" WAVE TRACK 08 AUDIO TITLE "We Can Never Break Up" PERFORMER "Alkaline Trio" ISRC USI2R0570123 FLAGS DCP INDEX 01 00:00:00FILE "09 - Avenged Sevenfold - Beast And The Harlot (Live from Warped Tour 2005).wav" WAVE TRACK 09 AUDIO TITLE "Beast And The Harlot (Live from Warped Tour 2005)" PERFORMER "Avenged Sevenfold" ISRC USI2R0570124 FLAGS DCP INDEX 01 00:00:00FILE "10 - In Flames - Discover Me Like Emptiness.wav" WAVE TRACK 10 AUDIO TITLE "Discover Me Like Emptiness" PERFORMER "In Flames" ISRC USI2R0570125 FLAGS DCP INDEX 01 00:00:00FILE "11 - A Change Of Pace - The Thin Red Line.wav" WAVE TRACK 11 AUDIO TITLE "The Thin Red Line" PERFORMER "A Change Of Pace" ISRC USI2R0440113 FLAGS DCP INDEX 01 00:00:00FILE "12 - Bear vs Shark - Victoria Iceberg.wav" WAVE TRACK 12 AUDIO TITLE "Victoria Iceberg" PERFORMER "Bear vs Shark" ISRC USI2R0570127 FLAGS DCP INDEX 01 00:00:00FILE "13 - Gratitude - If Ever (Acoustic).wav" WAVE TRACK 13 AUDIO TITLE "If Ever (Acoustic)" PERFORMER "Gratitude" ISRC USI2R0570128 FLAGS DCP INDEX 01 00:00:00FILE "14 - Fear Before The March Of Flames - 237.wav" WAVE TRACK 14 AUDIO TITLE "237" PERFORMER "Fear Before The March Of Flames" ISRC USI2R0570129 FLAGS DCP INDEX 01 00:00:00FILE "15 - Yesterday's Rising - Contrast Of Light And Dark.wav" WAVE TRACK 15 AUDIO TITLE "Contrast Of Light And Dark" PERFORMER "Yesterday's Rising" ISRC USI2R0570130 FLAGS DCP INDEX 01 00:00:00
-

_________________


Last edited by Nugeiro on 2011-09-12 17:36; edited 1 time in total
Other forum [Profile] [PM]
Display posts from previous:    
Reply to topic

The time now is: Today 06:26

All times are GMT + 3 Hours



You cannot post new topics in this forum
You cannot reply to topics in this forum
You cannot edit your posts in this forum
You cannot delete your posts in this forum
You cannot vote in polls in this forum
You cannot attach files in this forum
You cannot download files in this forum