Today is a free download without charge Download

Проданный смех (Леонид Нечаев) (мюзикл, фэнтези, приключения, семейный 1981) DVDRip [H.264]

Reply to topic
 
Author
Message

Omen ®

Longevity: 8 years 7 months

Posts: 181087

Торрент-статистика

Post 20-Aug-2013 15:43

[Quote]

Проданный смех (ТВ)- Год выпуска: 1981
Страны: СССР
Жанры: мюзикл, фэнтези, приключения, семейный
Продолжительность: 02:10:34
Режиссер: Леонид Нечаев
Сценарий: Инна Веткина, Джеймс Крюс
Оператор: Владимир Калашников
Композитор : Максим Дунаевский
Художник: Алим Матвейчук
Монтаж: Вера Коляденко
В ролях: Павел Кадочников (барон Треч), Александр Продан (Тим Талер), Елена Морозова (Габи Бебер, негритёнок), Анастасия Нечаева (вторая дочь госпожи Бебер), Вадим Белевцев (Ирвин), Наталья Гундарева (госпожа Бебер), Екатерина Васильева (мачеха Тима), Надежда Румянцева (Эмма Риккерт)

Описание: После смерти отца Тим Талер, добрый и веселый мальчик, остается со скупой мачехой. Он продает свой смех злому волшебнику в обмен на способность выигрывать любые пари. Но без улыбки и смеха, оказывается, не может быть счастья. Тогда Тим пускается в опасное путешествие, чтобы вернуть смех…-
Качество: DVDRip-AVC
Формат: MKV
Видео кодек: AVC
Аудио кодек: AC3
Видео: 688x516 (4:3), 25.000 fps, AVC, 1 777 Kbps
Аудио: AC3, 192 Kbps, 48.0 KHz, 2 ch

МедиаИнфо

Код:
General
Complete name                    : Prodannyi smeh.1981.DVDRip-AVC.h264.almikl.mkv
Format                           : Matroska
File size                        : 1.80 GiB
Duration                         : 2h 10mn
Overall bit rate                 : 1 971 Kbps
Encoded date                     : UTC 2013-08-19 07:47:51
Writing application              : mkvmerge v6.0.0 ('Coming Up For Air') built on Jan 20 2013 09:52:00
Writing library                  : libebml v1.3.0 + libmatroska v1.4.0
Video
ID                               : 1
Format                           : AVC
Format/Info                      : Advanced Video Codec
Format profile                   : [url=mailto:[email protected]][email protected][/url]
Format settings, CABAC           : Yes
Format settings, ReFrames        : 6 frames
Muxing mode                      : Container [email protected]
Codec ID                         : V_MPEG4/ISO/AVC
Duration                         : 2h 10mn
Bit rate                         : 1 777 Kbps
Width                            : 688 pixels
Height                           : 516 pixels
Display aspect ratio             : 4:3
Frame rate                       : 25.000 fps
Color space                      : YUV
Chroma subsampling               : 4:2:0
Bit depth                        : 8 bits
Scan type                        : Progressive
Bits/(Pixel*Frame)               : 0.200
Stream size                      : 1.59 GiB (88%)
Writing library                  : x264 core 129 r2245 bc13772
Encoding settings                : cabac=1 / ref=6 / deblock=1:-1:-1 / analyse=0x3:0x113 / me=umh / subme=10 / psy=1 / psy_rd=1.00:0.15 / mixed_ref=1 / me_range=32 / chroma_me=1 / trellis=2 / 8x8dct=1 / cqm=0 / deadzone=21,11 / fast_pskip=1 / chroma_qp_offset=-3 / threads=12 / lookahead_threads=2 / sliced_threads=0 / nr=0 / decimate=1 / interlaced=0 / bluray_compat=0 / constrained_intra=0 / bframes=10 / b_pyramid=2 / b_adapt=2 / b_bias=0 / direct=1 / weightb=1 / open_gop=0 / weightp=2 / keyint=250 / keyint_min=25 / scenecut=40 / intra_refresh=0 / rc_lookahead=40 / rc=2pass / mbtree=1 / bitrate=1777 / ratetol=1.0 / qcomp=0.60 / qpmin=10 / qpmax=51 / qpstep=4 / cplxblur=20.0 / qblur=0.5 / ip_ratio=1.40 / aq=1:1.00
Audio
ID                               : 2
Format                           : AC-3
Format/Info                      : Audio Coding 3
Mode extension                   : CM (complete main)
Codec ID                         : A_AC3
Duration                         : 2h 10mn
Bit rate mode                    : Constant
Bit rate                         : 192 Kbps
Channel(s)                       : 2 channels
Channel positions                : Front: L R
Sampling rate                    : 48.0 KHz
Bit depth                        : 16 bits
Stream size                      : 179 MiB (10%)
Скриншоты:
                   
Other forum [Profile] [PM]
Display posts from previous:    
Reply to topic

The time now is: Today 02:54

All times are GMT + 3 Hours



You cannot post new topics in this forum
You cannot reply to topics in this forum
You cannot edit your posts in this forum
You cannot delete your posts in this forum
You cannot vote in polls in this forum
You cannot attach files in this forum
You cannot download files in this forum