Today is a free download without charge Download

Волшебный клад (Дмитрий Бабиченко) [1950, Мультфильм, DVB]

Reply to topic
 
Author
Message

Omen ®

Longevity: 8 years 11 months

Posts: 181086

Торрент-статистика

Post 19-Aug-2013 17:25

[Quote]

Волшебный клад
Страна: СССР
Жанр: Мультфильм
Продолжительность: 00:19:20
Год выпуска: 1950
Русские субтитры: нет
Режиссёр: Дмитрий Бабиченко
Роли озвучивали: Наталья Гицерот, Александра Панова, Владимир Балашов, Эраст Гарин, Владимир Грибков
Описание: Сказка о храбром пастухе Баире и жадном богаче Галсане.
По мотивам бурят-монгольской сказки П. Маляревского
Качество: DVB
Формат: MPEG-PS
Видео: MPEG2 Video, 704x576 (4:3), 25 fps, 4193 Kbps
Аудио: MPEG Audio, 48.0 KHz, 2 ch, 192 Kbps
Субтитры: нет

Подробные технические данные

GeneralComplete name : D:\Video\РИП\Волшебный клад_Звезда.mpgFormat : MPEG-PSFile size : 631 MiBDuration : 19mn 20sOverall bit rate : 4 564 Kbps
VideoID : 224 (0xE0)Format : MPEG VideoFormat version : Version 2Format profile : [email protected] settings, Matrix : DefaultDuration : 19mn 20sBit rate mode : VariableBit rate : 4 191 KbpsNominal bit rate : 4 840 KbpsWidth : 704 pixelsHeight : 576 pixelsDisplay aspect ratio : 4:3Frame rate : 25.000 fpsColorimetry : 4:2:0Scan type : InterlacedScan order : Top Field FirstBits/(Pixel*Frame) : 0.413Stream size : 580 MiB (92%)
AudioID : 192 (0xC0)Format : MPEG AudioFormat version : Version 1Format profile : Layer 2Duration : 19mn 19sBit rate mode : ConstantBit rate : 192 KbpsChannel(s) : 2 channelsSampling rate : 48.0 KHzResolution : 16 bitsStream size : 26.6 MiB (4%)

Скриншоты



Other forum [Profile] [PM]
Display posts from previous:    
Reply to topic

The time now is: Today 18:47

All times are GMT + 3 Hours



You cannot post new topics in this forum
You cannot reply to topics in this forum
You cannot edit your posts in this forum
You cannot delete your posts in this forum
You cannot vote in polls in this forum
You cannot attach files in this forum
You cannot download files in this forum