Сегодня идет свободное скачивание без начисления Download

Мертвячка / Deadgirl (Марсель Сармиенто, Гади Хэрел) [2008 г., ужасы, триллер, НDRip ]

Ответить на тему
 
Автор
Сообщение

Delia ®

Пол:

Стаж: 8 лет 11 месяцев

Сообщений: 1822

Торрент-статистика

Пост 12-Сен-2011 08:22

[Цитировать]

МертвячкаDeadgirl Год выпуска: 2008
Страна: США
Жанр: ужасы, триллер
Продолжительность: 01:41:36
Перевод: Любительский (двухголосый)
Режиссер: Марсель Сармиенто, Гади Хэрел
Продюссер: Гади Хэрел, Марсель Сармиенто, Брендан Дэвис
Сценарий: Трент Хаага
Премьера в мире: 6 сентября 2008
В ролях: Шайло Фернандез , Ной Сеган, Кэндис Аккола, Эрик Поднар, Дженни Спэйн, Эндрю ДиПальма, Нолан Фанк, Майкл Боуэн, Дэвид Алан Граф,
Сьюзэн Мари Келлер
Описание: Два закадычных друга по школьной скамье, Рикки и Джей Ти, решают что сегодняшний день слишком уж хорош, чтобы тратить его на уроки в школе. Только вот выбор парней, почему-то пал на не самое лучшее место для прогула школы, а именно - психиатрическую лечебницу. Погуляв по зданию, они решают спуститься в подвал, и обнаруживают там...труп девушки. Рикки и Джей Ти не вызывают полицию, а ведь могли...возможно, если бы они решились на это, все сложилось бы совсем иначе...

Качество: НDRip
Формат: MKV
Видео кодек: H.264
Аудио кодек: AC3
Видео: English, 1926 Кбит/сек, 720*304 (2,35:1), в 23,976 кадр/сек, AVC ([email protected])
Аудио: 448 Кбит/сек, 48,0 КГц, 16 бит, 6 канала(ов), AC-3 (Любительский двухголосый )
Аудио:192 Кбит/сек, 44,1 КГц, 16 бит, 2 канала(ов), AC-3 ( Любительский одноголосый [zamez])
Аудио:320 Кбит/сек, 48,0 КГц, 16 бит, 6 канала(ов), AC-3 ( оригинал )

MI:

Общее
Уникальный идентификатор : 228948495057029696451791094675062755911 (0xAC3DE050F46FA7318D7D70942FFD9247)
Полное имя : E:торрентMertvjachka.2008.x264.HDRip.mkv
Формат : Matroska
Размер файла : 2,05 Гбайт
Продолжительность : 1 ч. 41 м.
Общий поток : 2886 Кбит/сек
Дата кодирования : UTC 2011-09-11 22:25:04
Программа кодирования : mkvmerge v4.9.1 ('Ich will') built on Jul 11 2011 23:53:15
Библиотека кодирования : libebml v1.2.1 + libmatroska v1.1.1
Видео
Идентификатор : 1
Формат : AVC
Формат/Информация : Advanced Video Codec
Профиль формата : [email protected]
Параметр CABAC формата : Да
Параметр ReFrames формата : 8 кадры
Идентификатор кодека : V_MPEG4/ISO/AVC
Продолжительность : 1 ч. 41 м.
Битрейт : 1926 Кбит/сек
Ширина : 720 пикс.
Высота : 304 пикс.
Соотношение сторон : 2,35:1
Частота кадров : 23,976 кадр/сек
Цветовое пространство : YUV
Подвыборка цветности : 4:2:0
Битовая глубина : 8 бит
Тип развёртки : Прогрессивная
Бит/(Пиксели*Кадры) : 0.367
Размер потока : 1,33 Гбайт (65%)
Библиотека кодирования : x264 core 116 r2074 2641b9e
Настройки программы : cabac=1 / ref=8 / deblock=1:-3:-3 / analyse=0x3:0x113 / me=umh / subme=8 / psy=1 / psy_rd=1.00:0.15 / mixed_ref=1 / me_range=32 / chroma_me=1 / trellis=2 / 8x8dct=1 / cqm=0 / deadzone=21,11 / fast_pskip=0 / chroma_qp_offset=-3 / threads=6 / sliced_threads=0 / nr=0 / decimate=1 / interlaced=0 / bluray_compat=0 / constrained_intra=0 / bframes=6 / b_pyramid=2 / b_adapt=2 / b_bias=0 / direct=3 / weightb=1 / open_gop=0 / weightp=2 / keyint=250 / keyint_min=23 / scenecut=40 / intra_refresh=0 / rc_lookahead=50 / rc=2pass / mbtree=1 / bitrate=1926 / ratetol=1.0 / qcomp=0.80 / qpmin=10 / qpmax=51 / qpstep=4 / cplxblur=20.0 / qblur=0.5 / ip_ratio=1.40 / aq=1:1.00
Язык : English
Аудио #1
Идентификатор : 2
Формат : AC-3
Формат/Информация : Audio Coding 3
Расширение режима : CM (complete main)
Идентификатор кодека : A_AC3
Продолжительность : 1 ч. 41 м.
Вид битрейта : Постоянный
Битрейт : 448 Кбит/сек
Канал(ы) : 6 канала(ов)
Расположение каналов : Front: L C R, Side: L R, LFE
Частота : 48,0 КГц
Битовая глубина : 16 бит
Метод сжатия : С потерями
Размер потока : 326 Мбайт (16%)
Язык : Russian
Аудио #2
Идентификатор : 3
Формат : AC-3
Формат/Информация : Audio Coding 3
Расширение режима : CM (complete main)
Идентификатор кодека : A_AC3
Продолжительность : 1 ч. 41 м.
Вид битрейта : Постоянный
Битрейт : 192 Кбит/сек
Канал(ы) : 2 канала(ов)
Расположение каналов : Front: L R
Частота : 44,1 КГц
Битовая глубина : 16 бит
Метод сжатия : С потерями
Задержка видео : 17 мс.
Размер потока : 140 Мбайт (7%)
Язык : Russian
Аудио #3
Идентификатор : 4
Формат : AC-3
Формат/Информация : Audio Coding 3
Расширение режима : CM (complete main)
Идентификатор кодека : A_AC3
Продолжительность : 1 ч. 41 м.
Вид битрейта : Постоянный
Битрейт : 320 Кбит/сек
Канал(ы) : 6 канала(ов)
Расположение каналов : Front: L C R, Side: L R, LFE
Частота : 48,0 КГц
Битовая глубина : 16 бит
Метод сжатия : С потерями
Размер потока : 233 Мбайт (11%)
Язык : English

Скриншоты:

       

_________________
Человек – это канат, натянутый между животным и сверхчеловеком, – канат над пропастью.
В человеке ценно то, что он мост, а не цель. Фридрих Ницше


Последний раз редактировалось: Delia (2011-09-12 08:25), всего редактировалось 1 раз
Вне форума [Профиль] [ЛС]
Похожие темы
Форум Тема Автор Торрент Отв. Посл. сообщение
./templates/default/images/folder_dl.gif Приключения, детектив, боевик, триллер Джеймс Роллинс | Тропа мертвых [сборник] (2014) [FB2] Omen
1 | 0

0 | 2525

3

2014-12-27 21:28
Omen Последнее
Показать сообщения:    
Ответить на тему

Текущее время: Сегодня 19:03

Часовой пояс: GMT + 3



Вы не можете начинать темы
Вы не можете отвечать на сообщения
Вы не можете редактировать свои сообщения
Вы не можете удалять свои сообщения
Вы не можете голосовать в опросах
Вы не можете прикреплять файлы к сообщениям
Вы не можете скачивать файлы