Today is a free download without charge Download

Новогодние приключения Маши и Вити (Игорь Усов) (Приключения, Детский 1975) DVB

Reply to topic
 
Author
Message

Omen ®

Longevity: 8 years 7 months

Posts: 181087

Торрент-статистика

Post 18-Aug-2013 21:33

[Quote]

Новогодние приключения Маши и Вити - Год выпуска: 1975
Жанр: Приключения, Детский
Описание фильма:
Они такие разные — младшеклассники Витя, верящий только в технику, и Маша, верящая в чудеса. Вместе с другими ребятами они украшают ёлку, но Дед Мороз поведал им, что Снегурочку похитил Кащей, чтобы устроить Новый год для своей нечисти. Маша и Витя с помощью Дед-Мороза отправляются в сказку на помощь Снегурочке. Кащей, узнав об этом, посылает им навстречу нечистую силу — вокально-инструментальную троицу «Дикие гитары»: Бабу-Ягу, Лешего и Дикого Кота Матвея...
Режиссер: Игорь Усов
Актеры: Наташа Симонова, Юра Нахратов, Игорь Ефимов, Ирина Борисова, Николай Боярский, Михаил Боярский, Любовь Виролайнен, Валентина Кособуцкая, Георгий Штиль

Продолжительность: 01:06:41
Качество видео: DVB
Видео: MPEG 2, 720x576 (4:3), 25.000 fps, 15.0 Mbps (0.513 bit/pixel)
Аудио: MP2, 48.0 KHz, 2 ch, 256 Kbps, CBR

МедиаИнфо:

Видео
Идентификатор : 224 (0xE0)
Формат : MPEG Video
Версия формата : Version 2
Профиль формата : [email protected]
Параметр BVOP формата : Да
Параметр матрицы формата : Выборочная
Параметр GOP формата : M=3, N=15
Продолжительность : 1 ч. 6 м.
Вид битрейта : Переменный
Битрейт : 5323 Кбит/сек
Максимальный битрейт : 15,0 Мбит/сек
Ширина : 720 пикселей
Высота : 576 пикселей
Соотношение сторон : 4:3
Частота кадров : 25,000 кадров/сек
Стандарт вещания : PAL
Цветовое пространство : YUV
Субдискретизация насыщенности : 4:2:0
Битовая глубина : 8 бит
Тип развёртки : Чересстрочная
Порядок развёртки : Верхнее поле первое
Метод сжатия : С потерями
Бит/(Пиксели*Кадры) : 0.513
Размер потока : 2,48 Гбайт (94%)
Аудио
Идентификатор : 192 (0xC0)
Формат : MPEG Audio
Версия формата : Version 1
Профиль формата : Layer 2
Продолжительность : 1 ч. 6 м.
Вид битрейта : Постоянный
Битрейт : 256 Кбит/сек
Каналы : 2 канала
Частота : 48,0 КГц
Метод сжатия : С потерями
Размер потока : 122 Мбайт (4%)
Скриншоты:
         
         
Other forum [Profile] [PM]
Similar theme
Forum Topic Author Torrent Replies Last Post
./templates/default/images/folder_dl.gif Медицина и Здоровье А.В.Сосновская | Украшения новогоднего стола [2012] [PDF] sashau
0 | 1

0 | 1053

3

2012-12-29 12:43
sashau Latest
Display posts from previous:    
Reply to topic

The time now is: Today 23:28

All times are GMT + 3 Hours



You cannot post new topics in this forum
You cannot reply to topics in this forum
You cannot edit your posts in this forum
You cannot delete your posts in this forum
You cannot vote in polls in this forum
You cannot attach files in this forum
You cannot download files in this forum