Today is a free download without charge Download

ONE OK ROCK - Zankyo Reference TOUR in YOKOHAMA ARENA [2012, JRock, BDRip 720p]

Reply to topic
 
Author
Message

Omen ®

Longevity: 8 years 4 months

Posts: 181087

Торрент-статистика

Post 18-Aug-2013 21:03

[Quote]

ONE OK ROCK - Zankyo Reference TOUR in YOKOHAMA ARENA
Жанр: JRock
Продолжительность: 02:01:55
Год выпуска: 2012
Описание: Концерт из тура "Zankyo Reference", проведенный в Yokohama Arena в январе 2012 года. В раздаче присутствуют английские субтитры.
Доп. информация:
Треклист:
1. LOST AND FOUND
2. Kaimu (皆無; Nothing)
3. Mikansei Koukyoukyoku (未完成交響曲;; Incomplete Symphony)
4. Jibun ROCK (じぶんROCK; One's Own ROCK)
5. Re:make
6. Seken Shirazu no Uchuu Hikoushi (世間知らずの宇宙飛行士; An Astronaut's Ignorance of the Ways of the World)
7. Mr. Gendai Speaker (Mr.現代Speaker; Mr. Modern-day Speaker)
8. Answer is Near (アンサイズニア)
9. Kagerou (カゲロウ; Mayflies)
10. Wherever you are
11. Etcetera (エトセトラ)
12. Karasu (カラス; Crow)
13. Pierce
14. C.h.a.o.s.m.y.t.h.
15. Liar
16. Let's take it someday
17. Rock, Scissors, Paper
18. NO SCARED
19. Koi no Aibou Kokoro no Cupid (恋ノアイボウ心ノクピド; Love's Partner, The Heart of Cupid)
20. Kanzen Kankaku Dreamer (完全感覚Dreamer; Perfect Sensation Dreamer)
21. Nobody's Home
22. Kimishidai Ressha (キミシダイ列車; A Train Dependent on You)
От автора раздачи: имхо, лучший концерт из выпущенных на Blu-ray. Ребята выложились на полную, оркестровая часть просто шикарна, общая энергетика концерта просто зашкаливает.
Качество: BDRip 720p
Контейнер: MKV
Аудио кодек: AC3
Видео: V_MPEG4/ISO/AVC, 1280х720 (16:9), 7608 Kbps, 29.970 fps
Аудио: AC-3, 640 Kbps, 48.0 KHz, 2 ch

Отчёт MediaInfo / BDInfo

GeneralUnique ID : 170481038053279922391939527772283727815 (0x8041742007141B5D8507A9566891EFC7)Complete name : G:\Films\Live\OOR - Yokohama Arena Concert\[HD_720p]ONE OK ROCK - Zankou Reference Tour - Yokohama Arena.mkvFormat : MatroskaFormat version : Version 2File size : 7.17 GiBDuration : 2h 1mnOverall bit rate : 8 415 KbpsMovie name : ONE OK ROCK - Zankou Reference Tour - Yokohama ArenaEncoded date : UTC 2013-03-02 16:05:43Writing application : mkvmerge v3.1.0 ('Happy up here') built on Jan 19 2010 12:09:24Writing library : libebml v0.7.9 + libmatroska v0.8.1Attachment : Imported font from ONE OK ROCK - Zankyo Reference Tour (English).ass / Imported font from ONE OK ROCK - Zankyo Reference Tour (English).ass / Imported font from ONE OK ROCK - Zankyo Reference Tour (English).ass / Imported font from ONE OK ROCK - Zankyo Reference Tour (English).ass / Imported font from ONE OK ROCK - Zankyo Reference Tour (English).ass / Imported font from ONE OK ROCK - Zankyo Reference Tour (English).ass / Imported font from ONE OK ROCK - Zankyo Reference Tour (English).ass / Imported font from ONE OK ROCK - Zankyo Reference Tour (English).ass / Imported font from ONE OK ROCK - Zankyo Reference Tour (English).ass / Imported font from ONE OK ROCK - Zankyo Reference Tour (English).ass / Imported font from ONE OK ROCK - Zankyo Reference Tour (English).ass
VideoID : 1Format : AVCFormat/Info : Advanced Video CodecFormat profile : [email protected] settings, CABAC : YesFormat settings, ReFrames : 4 framesCodec ID : V_MPEG4/ISO/AVCDuration : 2h 1mnBit rate : 7 608 KbpsWidth : 1 280 pixelsHeight : 720 pixelsDisplay aspect ratio : 16:9Frame rate mode : ConstantFrame rate : 29.970 fpsColor space : YUVChroma subsampling : 4:2:0Bit depth : 8 bitsScan type : ProgressiveBits/(Pixel*Frame) : 0.275Stream size : 6.48 GiB (90%)Writing library : x264 core 112 r1867 22bfd31Encoding settings : cabac=1 / ref=3 / deblock=1:0:0 / analyse=0x3:0x113 / me=hex / subme=7 / psy=1 / psy_rd=1.00:0.00 / mixed_ref=1 / me_range=16 / chroma_me=1 / trellis=1 / 8x8dct=1 / cqm=0 / deadzone=21,11 / fast_pskip=1 / chroma_qp_offset=-2 / threads=3 / sliced_threads=0 / nr=0 / decimate=1 / interlaced=0 / constrained_intra=0 / bframes=3 / b_pyramid=2 / b_adapt=1 / b_bias=0 / direct=1 / weightb=1 / open_gop=0 / weightp=2 / keyint=250 / keyint_min=25 / scenecut=40 / intra_refresh=0 / rc_lookahead=40 / rc=crf / mbtree=1 / crf=18.0 / qcomp=0.60 / qpmin=0 / qpmax=51 / qpstep=4 / ip_ratio=1.40 / aq=1:1.00Default : NoForced : No
AudioID : 2Format : AC-3Format/Info : Audio Coding 3Mode extension : CM (complete main)Format settings, Endianness : BigCodec ID : A_AC3Duration : 2h 1mnBit rate mode : ConstantBit rate : 640 KbpsChannel(s) : 2 channelsChannel positions : Front: L RSampling rate : 48.0 KHzBit depth : 16 bitsCompression mode : LossyStream size : 558 MiB (8%)Default : NoForced : No
Menu00:00:00.000 : en:Coda00:01:43.536 : en:LOST AND FOUND00:04:55.662 : en:KAIMU00:08:59.739 : en:MC 100:09:37.877 : en:MIKANSEI KOKYOKYOKU00:13:02.348 : en:JIBUN ROCK00:17:05.491 : en:RE:MAKE00:20:30.429 : en:NAIVE ASTRONAUT00:25:33.532 : en:SPEAKER PROLOGUE00:27:51.936 : en:MR.GENDAI SPEAKER00:31:51.509 : en:MC 200:38:24.101 : en:ANSWER IS NEAR00:42:45.362 : en:MC 300:46:31.088 : en:KAGEROU00:50:47.611 : en:WHEREVER YOU ARE00:56:26.983 : en:WATER INTRO00:57:21.504 : en:ETCETERA01:02:27.744 : en:KARASU01:07:46.796 : en:PIERCE01:14:08.911 : en:CHAOSMYTH01:19:54.689 : en:LIAR01:24:14.049 : en:MC 401:28:44.986 : en:LET'S TAKE IT SOMEDAY01:32:54.135 : en:ROCK,SCISSORS,PAPER01:36:53.574 : en:NO SCARED01:40:42.736 : en:KOI NO AIBOU KOKORO NO CUPIDO01:43:50.290 : en:KANZEN KANKAKU DREAMER01:48:59.432 : en:NOBODY'S HOME01:56:37.523 : en:KIMISHIDAI RESSHA

Скриншоты

Other forum [Profile] [PM]
Display posts from previous:    
Reply to topic

The time now is: Today 17:51

All times are GMT + 3 Hours



You cannot post new topics in this forum
You cannot reply to topics in this forum
You cannot edit your posts in this forum
You cannot delete your posts in this forum
You cannot vote in polls in this forum
You cannot attach files in this forum
You cannot download files in this forum