Today is a free download without charge Download

Специалист / The Specialist (Луис Льоса /Luis Llosa) [1994, Боевик, Триллер, BDRip] [AVO] (Кашкин "ранний перевод")

Reply to topic
 
Author
Message

maxkiller ®

Gender:

Longevity: 8 years 8 months

Posts: 290

Торрент-статистика

Post 18-Aug-2013 15:12

[Quote]

Специалист / The Specialist
Год выпуска: 1994
Страна: США, Перу
Жанр: Боевик, Триллер
Продолжительность: 01:49:57
Перевод: Авторский (одноголосый, закадровый)[Кашкин "ранний перевод"]
Оригинальная аудиодорожка: нет
Cубтитры: нет
Режиссер: Луис Льоса /Luis Llosa
В ролях: Сильвестр Сталлоне, Шэрон Стоун, Джеймс Вудс, Род Стайгер, Эрик Робертс, Марио Эрнесто Санчез, Чейз Рэндольф, Жанна Белл, Бриттани Пейдж Боак, Тони Мунафо, Мерседес Энрикез, Йениффер Беренс
Описание: Шэрон Стоун — в роли сексапильной красотки Мэй с роковым прошлым. Она поклялась отомстить гангстерам, убившим ее родителей, и уже выбрала способ, как с ними расправиться, и нашла человека, который это сделает: внешне невозмутимый бывший эксперт — подрывник ЦРУ Рэй.

Качество видео: BDRip
Формат видео: AVI
Видео кодек: XviD
Аудио кодек: AC3
Видео: 704x400 (1.76:1), 23.976 fps, XviD build 64 ~2058 kbps avg, 0.30 bit/pixel
Аудио: 44.100 kHz, AC3 Dolby Digital, 2 ch, ~256.00 kbps avg [AVO] (Кашкин "ранний перевод")

О релизе:

Звуковая дорожка предоставлена Krasnovv,
Видеоряд из релиза ENG1NEER, за что им Спасибо!
Дорожка синхронизирована и наложена killermax2013. Релиз с этим переводом является эксклюзивом для пиратбит , при выкладывании на других ресурсах просьба указывать первоисточник и авторство.

Знаете ли вы, что...

• Стивену Сигалу было предложено исполнить главную роль и стать режиссером фильма. Однако, когда он потребовал за эту работу $9 млн, студия не захотела столько ему платить и вместо него пригласила Сильвестера Сталлоне.

Скриншоты

     

MediaInfo

E:\INTERNET\The Specialist.1994.BDRip.[AVO] (Kashkin).avi
General
Complete name : E:\INTERNET\The Specialist.1994.BDRip.[AVO] (Kashkin).avi
Format : AVI
Format/Info : Audio Video Interleave
File size : 1.78 GiB
Duration : 1h 49mn
Overall bit rate : 2 323 Kbps
Writing application : VirtualDubMod 1.5.10.3 (build 2550/release)
Writing library : VirtualDubMod build 2550/release
Video #0
ID : 0
Format : MPEG-4 Visual
Format profile : Advanced [email protected]
Format settings, BVOP : 1
Format settings, QPel : No
Format settings, GMC : No warppoints
Format settings, Matrix : Custom
Codec ID : XVID
Codec ID/Hint : XviD
Duration : 1h 49mn
Bit rate : 2 058 Kbps
Width : 704 pixels
Height : 400 pixels
Display aspect ratio : 16:9
Frame rate : 23.976 fps
Color space : YUV
Chroma subsampling : 4:2:0
Bit depth : 8 bits
Scan type : Progressive
Compression mode : Lossy
Bits/(Pixel*Frame) : 0.305
Stream size : 1.58 GiB (89%)
Writing library : XviD 64
Audio #1
ID : 1
Format : AC-3
Format/Info : Audio Coding 3
Codec ID : 2000
Duration : 1h 49mn
Bit rate mode : Constant
Bit rate : 256 Kbps
Channel(s) : 2 channels
Sampling rate : 44.1 KHz
Compression mode : Lossy
Stream size : 201 MiB (11%)
Alignment : Split accross interleaves
Interleave, duration : 42 ms (1.00 video frame)
Interleave, preload duration : 500 ms
Other forum [Profile] [PM]
Similar theme
Forum Topic Author Torrent Replies Last Post
./templates/default/images/folder_dl.gif Обучающее видео Специалист | Основы экономики для руководителей, менеджеров и специалистов (2014) PCRec Omen
1 | 0

0 | 3296

50

2014-10-24 22:25
Omen Latest
./templates/default/images/folder_dl.gif Обучающее видео Специалист | Программирование на языке Python. Уровень 3. Разработка веб - приложений в Django (2019) HDTVRip [H.264/720p-LQ] Clavik
1 | 0

0 | 835

0

2019-09-13 20:22
Clavik Latest
Display posts from previous:    
Reply to topic

The time now is: Today 10:58

All times are GMT + 3 Hours



You cannot post new topics in this forum
You cannot reply to topics in this forum
You cannot edit your posts in this forum
You cannot delete your posts in this forum
You cannot vote in polls in this forum
You cannot attach files in this forum
You cannot download files in this forum