Today is a free download without charge Download

Rammstein 2013-06-21 Hurricane Festival Germany [PRO] [2013, Industrial, HDTV 1080i]

Reply to topic
 
Author
Message

Omen ®

Longevity: 8 years 3 months

Posts: 181087

Торрент-статистика

Post 18-Aug-2013 12:53

[Quote]

Rammstein 2013-06-21 Hurricane Festival Germany [PRO]- Жанр: Industrial
Продолжительность: 00:18:58
Год выпуска: 2013-Трек-лист:
Mein Teil
Flake Interview
Mein Herz brennt (Piano Version)
Du hast-Доп. информация: Спасибо Verue-Качество: HDTV 1080i
Контейнер: TS
Видео кодек: H.264
Аудио кодек: AC3
Видео: Mpeg4 AVC, 1920x1080, 8230 kbps, 25 fps
Аудио: AC3, 256 kbps, 48 kHz, stereo
Аудио 2: AC3, 256 kbps, 48 kHz, stereo
Аудио 3: AC3, 256 kbps, 48 kHz, stereo
Аудио 4: AC3, 192 kbps, 48 kHz, stereo-

Отчёт MediaInfo / BDInfo

GeneralID : 1 (0x1)Complete name : H:\Rammstein 2013-06-21 Hurricane Festival Germany [PRO]\Rammstein - 2013.06.21 - Live at Hurricane.tsFormat : MPEG-TSFile size : 1.22 GiBDuration : 18mn 58sOverall bit rate mode : VariableOverall bit rate : 9 237 KbpsMaximum Overall bit rate : 35.5 Mbps
VideoID : 4113 (0x1011)Menu ID : 1 (0x1)Format : AVCFormat/Info : Advanced Video CodecFormat profile : [email protected] settings, CABAC : YesFormat settings, ReFrames : 3 framesCodec ID : 27Duration : 18mn 58sBit rate mode : VariableBit rate : 7 811 KbpsMaximum bit rate : 40.0 MbpsWidth : 1 920 pixelsHeight : 1 080 pixelsDisplay aspect ratio : 16:9Frame rate : 25.000 fpsStandard : ComponentColor space : YUVChroma subsampling : 4:2:0Bit depth : 8 bitsScan type : InterlacedScan order : Top Field FirstBits/(Pixel*Frame) : 0.151Stream size : 1.04 GiB (85%)Color primaries : BT.601 PALTransfer characteristics : BT.470 System B, BT.470 System GMatrix coefficients : BT.601
Audio #1ID : 4352 (0x1100)Menu ID : 1 (0x1)Format : AC-3Format/Info : Audio Coding 3Mode extension : CM (complete main)Format settings, Endianness : BigCodec ID : 129Duration : 18mn 58sBit rate mode : ConstantBit rate : 256 KbpsChannel(s) : 2 channelsChannel positions : Front: L RSampling rate : 48.0 KHzBit depth : 16 bitsCompression mode : LossyDelay relative to video : -136msStream size : 34.7 MiB (3%)Language : French
Audio #2ID : 4353 (0x1101)Menu ID : 1 (0x1)Format : AC-3Format/Info : Audio Coding 3Mode extension : CM (complete main)Format settings, Endianness : BigCodec ID : 129Duration : 18mn 58sBit rate mode : ConstantBit rate : 256 KbpsChannel(s) : 2 channelsChannel positions : Front: L RSampling rate : 48.0 KHzBit depth : 16 bitsCompression mode : LossyDelay relative to video : -136msStream size : 34.7 MiB (3%)Language : qaa
Audio #3ID : 4354 (0x1102)Menu ID : 1 (0x1)Format : AC-3Format/Info : Audio Coding 3Mode extension : CM (complete main)Format settings, Endianness : BigCodec ID : 129Duration : 18mn 58sBit rate mode : ConstantBit rate : 256 KbpsChannel(s) : 2 channelsChannel positions : Front: L RSampling rate : 48.0 KHzBit depth : 16 bitsCompression mode : LossyDelay relative to video : -136msStream size : 34.7 MiB (3%)Language : qad
Audio #4ID : 4355 (0x1103)Menu ID : 1 (0x1)Format : AC-3Format/Info : Audio Coding 3Mode extension : CM (complete main)Format settings, Endianness : BigCodec ID : 129Duration : 18mn 58sBit rate mode : ConstantBit rate : 192 KbpsChannel(s) : 2 channelsChannel positions : Front: L RSampling rate : 48.0 KHzBit depth : 16 bitsCompression mode : LossyDelay relative to video : -136msStream size : 26.1 MiB (2%)Language : German

-

Скриншоты

-
Other forum [Profile] [PM]
Display posts from previous:    
Reply to topic

The time now is: Today 17:00

All times are GMT + 3 Hours



You cannot post new topics in this forum
You cannot reply to topics in this forum
You cannot edit your posts in this forum
You cannot delete your posts in this forum
You cannot vote in polls in this forum
You cannot attach files in this forum
You cannot download files in this forum