Today is a free download without charge Download

Помощники Гефеста (Борис Акулиничев) [1987, рисованный мультфильм, DVB]

Reply to topic
 
Author
Message

Omen ®

Longevity: 7 years 11 months

Posts: 181087

Торрент-статистика

Post 18-Aug-2013 04:45

[Quote]

Помощники Гефеста
Жанр: рисованный мультфильм
Год выпуска: 1987
Продолжительность: 00:09:48
Режиссёр: Борис Акулиничев
Описание: познавательный мультфильм о свойствах железа ...
Доп. информация:

Качество видео: DVB
Формат видео: MPEG-PS
Видео: MPEG2 Video, 720x576, 25 fps, 3600 kbps
Аудио: MPEG Audio, 2 сh, 48 kHz, 192 kbps

MediaInfo

D:\Помощники Гефеста. (1987)_DVB by SLuMeP.mpg.mpg
General
Complete name : D:\Помощники Гефеста. (1987)_DVB by SLuMeP.mpg.mpg
Format : MPEG-PS
File size : 274 MiB
Duration : 9mn 48s
Overall bit rate mode : Variable
Overall bit rate : 3 910 Kbps
Video #224
ID : 224 (0xE0)
Format : MPEG Video
Format version : Version 2
Format profile : [email protected]
Format settings, BVOP : Yes
Format settings, Matrix : Custom
Duration : 9mn 48s
Bit rate mode : Variable
Bit rate : 3 640 Kbps
Maximum bit rate : 5 000 Kbps
Width : 720 pixels
Height : 576 pixels
Display aspect ratio : 4:3
Frame rate : 25.000 fps
Standard : PAL
Color space : YUV
Chroma subsampling : 4:2:0
Bit depth : 8 bits
Scan type : Interlaced
Scan order : Top Field First
Compression mode : Lossy
Bits/(Pixel*Frame) : 0.351
Stream size : 256 MiB (93%)
Audio #192
ID : 192 (0xC0)
Format : MPEG Audio
Format version : Version 1
Format profile : Layer 2
Duration : 9mn 48s
Bit rate mode : Constant
Bit rate : 192 Kbps
Channel(s) : 2 channels
Sampling rate : 48.0 KHz
Compression mode : Lossy
Stream size : 13.5 MiB (5%)

Скриншоты

Other forum [Profile] [PM]
Similar theme
Forum Topic Author Torrent Replies Last Post
./templates/default/images/folder_dl.gif Комиксы, Графика, Wallpapers, Арт Смикиклас М. - Инфографика. Коммуникация и влияние при помощи изображений [2014, PDF, RUS] Omen
1 | 0

0 | 3422

0

2016-11-20 01:00
Omen Latest
Display posts from previous:    
Reply to topic

The time now is: Today 18:56

All times are GMT + 3 Hours



You cannot post new topics in this forum
You cannot reply to topics in this forum
You cannot edit your posts in this forum
You cannot delete your posts in this forum
You cannot vote in polls in this forum
You cannot attach files in this forum
You cannot download files in this forum